img image001 image001 image001 image001 image001 image001 image001 image001 image001 image001 image001 image001 image001 image001 image001

Planets Sun Sun Sun
Статистика раздачи
Автор: Снежана | Размер: 4.3 ГБ | Добавлен: 27 июл 2013
Раздают: 7    Качают: 8
Скачать торрент
Скачать торрент
Описание торрента

СообщениеДобавлено: 27 июл 2013 

#77
Выпуски 1-6
Страна: Россия
Год выпуска: 2011-2013
Жанр: мультфильм, детский
Продолжительность: 48 серий ~ 6 минут (04:44:05)

Субтитры: нет
Оригинальная аудиодорожка: Русский

Режиссер: Cвятослав Ушаков, Вячеслав Байрамгулов, Алексей Некрасов, Сергей Антонов, Екатерина Шабанова

Озвучивали: Дмитрий Филимонов, Лариса Брохман, Ольга Шорохова...

Описание: В сериале рассказывается о приключениях щенят, детей Белки и Казбека, на космодроме «Байконур». Умница Дина, всезнайка Рекс и хулиган Бублик мечтают попасть на космический корабль, как их родители. Эти попытки и приводят к различным комичным ситуациям, из которых малыши всегда находят выход. Добрый поучительный сюжет сериала пробуждает желание познавать мир и в то же время воспитывает чувство ответственности у детей, умение дружить и помогать близким....





Исходник: 6хDVD5
Тип релиза: DVDRip-AVC
Контейнер: MKV

Видео: 720x576 -> 1024x576 (16:9), 25 fps, H264 ~ 1825 kbps avg, 0.176 bit/pixel
Аудио: 48 kHz, AC3, 6 ch, 384.00 kbps
Аудио: 48 kHz, AC3, 6 ch, 448.00 kbps

Раздача от:
Общее
Полное имя : Belka.i.Strelka.Ozornaja.semejka.v3.2012.DVDRip-AVC.mkv
Формат : Matroska
Версия формата : Version 2
Размер файла : 94,7 Мбайт
Продолжительность : 6 м. 2 с.
Общий поток : 2192 Кбит/сек
Дата кодирования : UTC 2012-03-01 19:00:49
Программа кодирования : mkvmerge v5.0.1 ('Es ist Sommer') built on Nov 6 2011 16:23:40
Библиотека кодирования : libebml v1.2.2 + libmatroska v1.3.0

Видео
Идентификатор : 1
Формат : AVC
Формат/Информация : Advanced Video Codec
Профиль формата : High@L4.1
Параметр CABAC формата : Да
Параметр ReFrames формата : 6 кадров
Идентификатор кодека : V_MPEG4/ISO/AVC
Продолжительность : 6 м. 2 с.
Битрейт : 1825 Кбит/сек
Ширина : 720 пикселей
Высота : 576 пикселей
Соотношение сторон : 16:9
Частота кадров : 25,000 кадров/сек
Стандарт вещания : PAL
Цветовое пространство : YUV
Субдискретизация насыщенности : 4:2:0
Битовая глубина : 8 бит
Тип развёртки : Прогрессивная
Бит/(Пиксели*Кадры) : 0.176
Размер потока : 76,3 Мбайт (80%)
Библиотека кодирования : x264 core 119 r2106 07efeb4
Настройки программы : cabac=1 / ref=6 / deblock=1:-2:-1 / analyse=0x3:0x113 / me=umh / subme=6 / psy=1 / psy_rd=1.00:0.10 / mixed_ref=1 / me_range=32 / chroma_me=1 / trellis=1 / 8x8dct=1 / cqm=0 / deadzone=21,11 / fast_pskip=1 / chroma_qp_offset=-3 / threads=3 / sliced_threads=0 / nr=0 / decimate=1 / interlaced=0 / bluray_compat=0 / constrained_intra=0 / bframes=6 / b_pyramid=2 / b_adapt=1 / b_bias=0 / direct=3 / weightb=1 / open_gop=0 / weightp=0 / keyint=250 / keyint_min=25 / scenecut=40 / intra_refresh=0 / rc_lookahead=60 / rc=2pass / mbtree=1 / bitrate=1805 / ratetol=1.0 / qcomp=0.60 / qpmin=0 / qpmax=69 / qpstep=4 / cplxblur=20.0 / qblur=0.5 / ip_ratio=1.40 / aq=1:1.00
Default : Да
Forced : Нет

Аудио
Идентификатор : 2
Формат : AC-3
Формат/Информация : Audio Coding 3
Расширение режима : CM (complete main)
Идентификатор кодека : A_AC3
Продолжительность : 6 м. 2 с.
Вид битрейта : Постоянный
Битрейт : 384 Кбит/сек
Каналы : 6 каналов
Расположение каналов : Front: L C R, Side: L R, LFE
Частота : 48,0 КГц
Битовая глубина : 16 бит
Метод сжатия : С потерями
Размер потока : 16,6 Мбайт (18%)
Default : Да
Forced : Нет

01. Попасть на ТВ
02. Артиста много
03. Через тюбики
04. Немного заработать
05. Одни дома
06. Старый новый слон
07. Сюрприз из Америки
08. Тётя Мотя
09. Лекарство
10. В поисках попугая
11. Вопрос чистоты
12. Рыбалка для Бублика
13. Квартет
14. Цирк - это диагноз
15. Из песочницы к звездам
16. Впервые на арене
17. Снова к звёздам
18. Принцесса цирка
19. Страшная история
20. Глубина резкости
21. Куда улетают ёлки?
22. Настоящий Дед Мороз
23. Первый Снег
24. Повара
25. Самый любимый
26. Девятый вал
27. Настоящий герой
28. В небо
29. Мамин день рождения
30. Голова садовая
31. Правила движения
32. Прямой эфир
33. Это вам не фокусы!
34. Трудности севера
35. Чувство полета
36. Поход
37. Спасатели
38. Спасти Лапулю
39. День Сыра
40. День космонавтики
41. Тимуровцы
42. Радиоволны
43. Послание потомкам
44. Инкубатор
45. Приятель по разуму
46. Муки творчества
47. Летчики-налетчики
48. Ловкость лап





   Похожие торренты   Торрент   Размер 
В этой теме нет новых непрочитанных сообщений. Белка и Стрелка: Озорная семейка. Выпуск 01-06 [01-48 из 48] (2011-2012) DVDRip от Youtracker

178 | 19

4.32 ГБ

В этой теме нет новых непрочитанных сообщений. Белка и Стрелка: Озорная семейка. Выпуск 01-06 [01-48 из 48] (2011-2013) 6xDVD5 от Youtracker | лицензия

38 | 17

19.45 ГБ

В этой теме нет новых непрочитанных сообщений. Белка и Стрелка: Озорная семейка. Выпуск 01-07 [01-55 из ??] (2011-2014) DVDRip-AVC от New-Team

200 | 67

4.89 ГБ

В этой теме нет новых непрочитанных сообщений. Белка и Стрелка: Озорная семейка. Выпуск 01-07 [01-55 из ??] (2011-2014) DVDRip от New-Team

799 | 74

4.9 ГБ

В этой теме нет новых непрочитанных сообщений. Белка и Стрелка: Озорная семейка. Выпуск 01-07 [01-55 из 55] (2011-2013) 7xDVD5 от New-Team | лицензия

1457 | 552

22.81 ГБ

В этой теме нет новых непрочитанных сообщений. Белка и Стрелка: Озорная семейка [01-24 из 24] (2010-2011) WEB-DL 720p от MediaClub

363 | 48

1.84 ГБ

В этой теме нет новых непрочитанных сообщений. Белка и Стрелка: Озорная семейка [01-55 из 55] (2010-2013) WEB-DLRip-AVC от MediaClub

1095 | 134

4.36 ГБ




Вы не можете начинать темы
Вы не можете отвечать на сообщения
Вы не можете редактировать свои сообщения
Вы не можете удалять свои сообщения
Вы не можете добавлять вложения

Перейти:  
Для Мосгорсуда, Роскомнадзора и рекламодателей: mosgorsud-torrent[собачка]yandex.ru
 Вход
ppkBB3cker v.2 © 2008-2014 @ PPK
[ Time : 0.034s | 14 Queries | GZIP : Off ]

Торрент трекер RUTOR.IN, Не можете зайти на rutor.org? Какой новый адрес рутор? Какое зеркало рутор? Не работает rutor.org и зеркала? Тогда наш торрент специально для вас. Rutor.in неофициальное зеркало rutor. В случае если у Вас заблокирован rutor или вдруг Вы не можете на него зайти, то Вы без труда сможете скачать бесплатно и без рекламы последние новинки кино, игр, сериалов и прочего у нас, на Rutor.in. Не нужно использовать прокси, чтобы зайти на рутор, достаточно воспользоваться нашим ресурсом. Все новые фильмы, игры, сериалы, книги и музыка за 2013 и 2014 годы через торрент бесплатно. Скачивайте фильмы в хорошем качестве, игры для пк, xbox, playstation без регистрации. У нас вы найдете новые Зарубежные сериалы и Русские сериалы 2013, 2014, 2015 годов. Оставайтесь с нами, качайте любимые фильмы, игры, сериалы, книги и музыку.