img image001 image001 image001 image001 image001 image001 image001 image001 image001 image001 image001 image001 image001 image001 image001 image001

Planets Sun Sun Sun
Статистика раздачи
Автор: Снежана | Размер: 3.82 ГБ | Добавлен: 27 июл 2013
Раздают: 8    Качают: 5
Скачать торрент
Скачать торрент
Описание торрента

СообщениеДобавлено: 27 июл 2013 

#77

Информация о фильме
Название: Скуби-Ду! Маска голубого сокола
Оригинальное название: Scooby-Doo! Mask of the Blue Falcon
Год выхода: 2012
Жанр: мультфильм, приключения, семейный
Режиссер: Майкл Гогуэн
В ролях: Грегг Бергер, Минди Кон, Ника Футтерман, Фред Татаскьор

О фильме:
Когда ужасный злодей мистер Хайд выпускает летучих мышей-монстров, воющих гончих и зловещую слизь на праздник, наступает время для Корпорации Тайны - разгадывать загадки и расставлять ловушки на монстров. Но наевшаяся пиццы, супер-заряженная команда Шегги и Скуби-Ду должны раскрыть в себе внутренних супергероев, чтобы остановить эту удушающую, омерзительную зеленую слизь!


Страна: США
Продолжительность: 01:16:29
Перевод: Дубляж(Лицензия) + Оригинал

Файл
Кодек: x264
Качество: BDRip 1080p
Видео: 1920x1080 at 23.976 fps, x264@L4.1, crf, ~5309 kbps avg
Звук: Russian: 48 kHz, AC3, 2/0 (L,R) ch, ~192 kbps avg |Дубляж,R5|
English: 48 kHz, DTS, 3/2 (L,C,R,l,r) + LFE ch, ~1536 kbps avg
Субтитры: Russian,English

ЦитатаКто-то писал:
[*]Сохранены оригинальные чаптеры как на Blu-ray.

Семпл



Релиз от:

General
Unique ID : 224900511011183933990322596170682107999 (0xA932434B3718127183A318A19040885F)
Complete name : D:Scooby-Doo!Mask.of.the.Blue.Falcon.2012.1080р.BluRay.Rus.Eng.HDCLUB.mkv
Format : Matroska
Format version : Version 4 / Version 2
File size : 3.82 GiB
Duration : 1h 16mn
Overall bit rate : 7 153 Kbps
Movie name : Scooby-Doo! Mask of the Blue Falcon (2012) - Release for HDCLUB
Encoded date : UTC 2013-03-22 20:39:17
Writing application : mkvmerge v6.1.0 ('Old Devil') built on Mar 2 2013 14:32:37
Writing library : libebml v1.3.0 + libmatroska v1.4.0

Video
ID : 1
Format : AVC
Format/Info : Advanced Video Codec
Format profile : High@L4.1
Format settings, CABAC : Yes
Format settings, ReFrames : 4 frames
Codec ID : V_MPEG4/ISO/AVC
Duration : 1h 16mn
Bit rate : 5 309 Kbps
Width : 1 920 pixels
Height : 1 080 pixels
Display aspect ratio : 16:9
Frame rate : 23.976 fps
Color space : YUV
Chroma subsampling : 4:2:0
Bit depth : 8 bits
Scan type : Progressive
Bits/(Pixel*Frame) : 0.107
Stream size : 2.84 GiB (74%)
Title : Release for HDCLUB
Writing library : x264 core 130 r2273 b3065e6
Encoding settings : cabac=1 / ref=4 / deblock=1:-1:-1 / analyse=0x3:0x133 / me=umh / subme=11 / psy=1 / psy_rd=0.60:0.00 / mixed_ref=1 / me_range=32 / chroma_me=1 / trellis=2 / 8x8dct=1 / cqm=0 / deadzone=21,11 / fast_pskip=0 / chroma_qp_offset=-2 / threads=12 / lookahead_threads=3 / sliced_threads=0 / nr=0 / decimate=1 / interlaced=0 / bluray_compat=0 / constrained_intra=0 / bframes=10 / b_pyramid=2 / b_adapt=2 / b_bias=0 / direct=3 / weightb=1 / open_gop=0 / weightp=2 / keyint=240 / keyint_min=24 / scenecut=40 / intra_refresh=0 / rc=crf / mbtree=0 / crf=17.5 / qcomp=0.60 / qpmin=0 / qpmax=69 / qpstep=4 / ip_ratio=1.40 / pb_ratio=1.30 / aq=1:0.80
Language : English
Default : Yes
Forced : No

Audio #1
ID : 2
Format : AC-3
Format/Info : Audio Coding 3
Mode extension : CM (complete main)
Codec ID : A_AC3
Duration : 1h 16mn
Bit rate mode : Constant
Bit rate : 192 Kbps
Channel(s) : 2 channels
Channel positions : Front: L R
Sampling rate : 48.0 KHz
Bit depth : 16 bits
Compression mode : Lossy
Stream size : 105 MiB (3%)
Title : (AC3 2.0 @ 192 kbps - Дубляж R5 )
Language : Russian
Default : Yes
Forced : No

Audio #2
ID : 3
Format : DTS
Format/Info : Digital Theater Systems
Codec ID : A_DTS
Duration : 1h 16mn
Bit rate mode : Constant
Bit rate : 1 510 Kbps
Channel(s) : 6 channels
Channel positions : Front: L C R, Side: L R, LFE
Sampling rate : 48.0 KHz
Bit depth : 24 bits
Compression mode : Lossy
Stream size : 826 MiB (21%)
Title : (DTS 5.1 @ 1510 kbps- Original)
Language : English
Default : No
Forced : No

Text #1
ID : 4
Format : UTF-8
Codec ID : S_TEXT/UTF8
Codec ID/Info : UTF-8 Plain Text
Title : SRT
Language : Russian
Default : No
Forced : No

Text #2
ID : 5
Format : UTF-8
Codec ID : S_TEXT/UTF8
Codec ID/Info : UTF-8 Plain Text
Title : SRT
Language : English
Default : No
Forced : No

Menu
00:00:00.000 : :Chapter 01
00:10:52.652 : :Chapter 02
00:19:42.472 : :Chapter 03
00:30:32.288 : :Chapter 04
00:40:08.280 : :Chapter 05
00:51:16.281 : :Chapter 06
01:01:13.503 : :Chapter 07
01:12:12.327 : :Chapter 08
01:13:47.881 : :Chapter 09
01:16:28.333 : :Chapter 10


frame I:1174 Avg QP:12.79 size:235512
frame P:36323 Avg QP:14.40 size: 52708
frame B:72520 Avg QP:14.66 size: 12892
consecutive B-frames: 7.4% 15.6% 6.0% 61.1% 4.3% 2.1% 0.6% 1.3% 0.4% 0.5% 0.6%



   Похожие торренты   Торрент   Размер 
В этой теме нет новых непрочитанных сообщений. Скуби-Ду! Маска голубого сокола / Scooby-Doo! Mask of the Blue Falcon (2012) BDRip от HQCLUB | Лицензия

80 | 7

1.45 ГБ

В этой теме нет новых непрочитанных сообщений. Скуби-Ду! Маска голубого сокола / Scooby-Doo! Mask of the Blue Falcon (2012) BDRip 720p от Leonardo and Scarabey

21 | 3

1.55 ГБ

В этой теме нет новых непрочитанных сообщений. Восхождение Сокола / Falcon Rising (2014) BDRip 1080p от CINEMANIA | L1

544 | 112

5.21 ГБ

В этой теме нет новых непрочитанных сообщений. Восхождение Сокола / Falcon Rising (2014) BDRip 720p от CINEMANIA | L1

1339 | 128

2.82 ГБ

В этой теме нет новых непрочитанных сообщений. Скуби-Ду! Искусство борьбы / Скуби-Ду! Тайна рестлмании / Scooby-Doo! WrestleMania Mystery (2014) BDRip от Azazel | P

303 | 17

1.3 ГБ

В этой теме нет новых непрочитанных сообщений. Скуби-Ду! Искусство борьбы / Скуби-Ду! Тайна рестлмании / Scooby-Doo! WrestleMania Mystery (2014) BDRip от HQCLUB | Лицензия

354 | 47

1.45 ГБ

В этой теме нет новых непрочитанных сообщений. Скуби-Ду / Scooby-Doo (2002) BDRip 1080p | D, P, P2, A

38 | 5

8.73 ГБ




Вы не можете начинать темы
Вы не можете отвечать на сообщения
Вы не можете редактировать свои сообщения
Вы не можете удалять свои сообщения
Вы не можете добавлять вложения

Перейти:  
 Вход
ppkBB3cker v.2 © 2008-2014 @ PPK
[ Time : 0.024s | 17 Queries | GZIP : Off ]

cron