img image001 image001 image001 image001 image001 image001 image001 image001 image001 image001 image001 image001 image001 image001 image001

Planets Sun Sun Sun
Статистика раздачи
Автор: Снежана | Размер: 8.74 ГБ | Добавлен: 27 июл 2013
Раздают: 2    Качают: 4
Скачать торрент
Скачать торрент
Описание торрента

СообщениеДобавлено: 27 июл 2013 

#77

Все псы попадают в рай

All Dogs Go to Heaven

«But not all dogs stay there!»



Год выпуска: 1989
Страны: США, Великобритания, Ирландия
Жанры: мультфильм, боевик, драма, комедия
Продолжительность: 01:24:35
Режиссер: Дон Блат, Гари Голдман, Дэн Куенстер
Перевод: Дубляж + Профессиональный + авторский + Оригинал

В ролях:
Берт Рэйнольдс, Дом ДеЛуис, Джудит Барси, Мелба Мур, Дарел Гиллей, Кэнди Дивайн, Чарльз Нельсон Рейли , Вик Тейбэк, Роб Фуллер, Эрлин Карей, Кен Пейдж

Описание:
Пес по имени Чарли Баркин, занимавшийся азартными играми, погибает от лап питбуля Тупорыла и оказывается в раю — просто потому, что все псы обязательно попадают в рай. Однако Чарли так хочет рассчитаться со своим убийцей, что возвращается на Землю.
Вместе со своим верным другом Чесуном Чарли раскрывает главный секрет преуспевания Тупорыла. Тупорыл использует необыкновенные способности маленькой девочки-сироты по имени Анни-Мари, которая умеет разговаривать с животными и угадывает результаты крысиных бегов и лошадиных скачек. Чарли похищает девочку, и они становятся лучшими друзьями.
Им предстоит пережить множество невероятных приключений, прежде чем Чарли сможет, завершив свои земные дела, со спокойной душой отправиться обратно в рай…



Качество: BDRip 1080p (источник: Blu-ray Disc)
Формат: MKV
Видео кодек: H.264 (AVC)
Аудио кодек: AC3
Видео: 1920x1040, 5988 Kbps, 23,976 fps
Звук: 48 kHz, AC3, 2c, 192 kbps Дубляж
Звук: 48 kHz, AC3, 2c, 192 kbps Профессиональный (Многоголосый)
Звук: 48 kHz, AC3, 2c, 192 kbps Авторский одноголосный (А. Михалев)
Звук: 48 kHz, AC3, 2c, 192 kbps Авторский одноголосный (В. Дохалов)
Звук: 48 kHz, AC3, 2c, 640 kbps Оригинал
Субтитры: Русские, Английские, Украинские



Общее
Формат : Matroska
Версия формата : Version 4 / Version 2
Размер файла : 4,37 Гбайт
Продолжительность : 1 ч. 24 м.
Общий поток : 7399 Кбит/сек
Дата кодирования : UTC 2013-03-21 06:24:31
Программа кодирования : mkvmerge v6.1.0 ('Old Devil') built on Mar 2 2013 14:32:37
Библиотека кодирования : libebml v1.3.0 + libmatroska v1.4.0
Attachment : Yes / Yes

Видео
Идентификатор : 1
Формат : AVC
Формат/Информация : Advanced Video Codec
Профиль формата : High@L4.1
Параметр CABAC формата : Да
Параметр ReFrames формата : 4 кадра
Идентификатор кодека : V_MPEG4/ISO/AVC
Продолжительность : 1 ч. 24 м.
Битрейт : 5988 Кбит/сек
Ширина : 1920 пикселей
Высота : 1040 пикселей
Соотношение сторон : 1,85:1
Режим частоты кадров : Постоянный
Частота кадров : 23,976 кадра/сек
Цветовое пространство : YUV
Субдискретизация насыщенности : 4:2:0
Битовая глубина : 8 бит
Тип развёртки : Прогрессивная
Бит/(Пиксели*Кадры) : 0.125
Размер потока : 3,45 Гбайт (79%)
Заголовок : Rip by Dimok
Библиотека кодирования : x264 core 130 r2273 b3065e6
Настройки программы : cabac=1 / ref=4 / deblock=1:0:0 / analyse=0x3:0x133 / me=umh / subme=11 / psy=1 / psy_rd=1.00:0.10 / mixed_ref=1 / me_range=32 / chroma_me=1 / trellis=2 / 8x8dct=1 / cqm=0 / deadzone=21,11 / fast_pskip=0 / chroma_qp_offset=-1 / threads=12 / lookahead_threads=1 / sliced_threads=0 / slices=1 / nr=0 / decimate=0 / interlaced=0 / bluray_compat=0 / constrained_intra=0 / bframes=3 / b_pyramid=2 / b_adapt=2 / b_bias=0 / direct=3 / weightb=1 / open_gop=0 / weightp=2 / keyint=240 / keyint_min=23 / scenecut=40 / intra_refresh=0 / rc_lookahead=70 / rc=2pass / mbtree=1 / bitrate=5988 / ratetol=1.0 / qcomp=0.60 / qpmin=1 / qpmax=69 / qpstep=4 / cplxblur=20.0 / qblur=0.5 / ip_ratio=1.40 / aq=2:0.80
Язык : English
Default : Да
Forced : Нет

Аудио #1
Идентификатор : 2
Формат : AC-3
Формат/Информация : Audio Coding 3
Расширение режима : CM (complete main)
Параметр Endianness формата : Big
Идентификатор кодека : A_AC3
Продолжительность : 1 ч. 24 м.
Вид битрейта : Постоянный
Битрейт : 192 Кбит/сек
Каналы : 2 канала
Расположение каналов : Front: L R
Частота : 48,0 КГц
Битовая глубина : 16 бит
Метод сжатия : С потерями
Размер потока : 116 Мбайт (3%)
Заголовок : Дубляж
Язык : Russian
Default : Да
Forced : Нет

Аудио #2
Идентификатор : 3
Формат : AC-3
Формат/Информация : Audio Coding 3
Расширение режима : CM (complete main)
Параметр Endianness формата : Big
Идентификатор кодека : A_AC3
Продолжительность : 1 ч. 24 м.
Вид битрейта : Постоянный
Битрейт : 192 Кбит/сек
Каналы : 2 канала
Расположение каналов : Front: L R
Частота : 48,0 КГц
Битовая глубина : 16 бит
Метод сжатия : С потерями
Размер потока : 116 Мбайт (3%)
Заголовок : Профессиональный ( Многоголосый)
Язык : Russian
Default : Нет
Forced : Нет

Аудио #3
Идентификатор : 4
Формат : AC-3
Формат/Информация : Audio Coding 3
Расширение режима : CM (complete main)
Параметр Endianness формата : Big
Идентификатор кодека : A_AC3
Продолжительность : 1 ч. 24 м.
Вид битрейта : Постоянный
Битрейт : 192 Кбит/сек
Каналы : 2 канала
Расположение каналов : Front: L R
Частота : 48,0 КГц
Битовая глубина : 16 бит
Метод сжатия : С потерями
Размер потока : 116 Мбайт (3%)
Заголовок : Авторский Одноголосый, А. Михалев
Язык : Russian
Default : Нет
Forced : Нет

Аудио #4
Идентификатор : 5
Формат : AC-3
Формат/Информация : Audio Coding 3
Расширение режима : CM (complete main)
Параметр Endianness формата : Big
Идентификатор кодека : A_AC3
Продолжительность : 1 ч. 24 м.
Вид битрейта : Постоянный
Битрейт : 192 Кбит/сек
Каналы : 2 канала
Расположение каналов : Front: L R
Частота : 48,0 КГц
Битовая глубина : 16 бит
Метод сжатия : С потерями
Размер потока : 116 Мбайт (3%)
Заголовок : Авторский- Одноголосый, В. Дохалов
Язык : Russian
Default : Нет
Forced : Нет

Аудио #5
Идентификатор : 6
Формат : AC-3
Формат/Информация : Audio Coding 3
Расширение режима : CM (complete main)
Параметр Endianness формата : Big
Идентификатор кодека : A_AC3
Продолжительность : 1 ч. 24 м.
Вид битрейта : Постоянный
Битрейт : 640 Кбит/сек
Каналы : 2 канала
Расположение каналов : Front: L R
Частота : 48,0 КГц
Битовая глубина : 16 бит
Метод сжатия : С потерями
Размер потока : 387 Мбайт (9%)
Заголовок : Original
Язык : English
Default : Нет
Forced : Нет

Текст #1
Идентификатор : 7
Формат : UTF-8
Идентификатор кодека : S_TEXT/UTF8
Идентификатор кодека/Информация : UTF-8 Plain Text
Заголовок : RUS
Язык : Russian
Default : Да
Forced : Нет

Текст #2
Идентификатор : 8
Формат : ASS
Идентификатор кодека : S_TEXT/ASS
Идентификатор кодека/Информация : Advanced Sub Station Alpha
Метод сжатия : Без потерь
Заголовок : RUS
Язык : Russian
Default : Нет
Forced : Нет

Текст #3
Идентификатор : 9
Формат : UTF-8
Идентификатор кодека : S_TEXT/UTF8
Идентификатор кодека/Информация : UTF-8 Plain Text
Заголовок : UKR
Язык : Ukrainian
Default : Нет
Forced : Нет

Текст #4
Идентификатор : 10
Формат : ASS
Идентификатор кодека : S_TEXT/ASS
Идентификатор кодека/Информация : Advanced Sub Station Alpha
Метод сжатия : Без потерь
Заголовок : ENG
Язык : English
Default : Нет
Forced : Нет

Меню
00:00:00.000 : en:Logos/"Rat Race"
00:05:11.228 : en:You Can't Keep a Good Dog Down
00:08:32.846 : en:Carface & Charlie
00:14:18.191 : en:Let Me Be Surprised
00:19:32.296 : en:"I'm Not a Ghost!"
00:23:40.586 : en:Saving Anne-Marie
00:28:51.605 : en:Bedtime Story
00:37:51.978 : en:"Grand Chawhee to Win"
00:40:42.649 : en:"Jackpot!"
00:43:56.551 : en:What's Mine Is Yours
00:49:24.753 : en:Soon You'll Come Home
00:54:36.315 : en:"Don't Worry About Me"
00:57:36.119 : en:Let's Make Music Together
01:03:05.532 : en:"Bad Dog!"
01:08:47.623 : en:To the Rescue
01:14:00.353 : en:Heavenly Dog/Credits
________________________________________________________________
x264 [info]: frame I:803 Avg QP:24.51 size:121044
x264 [info]: frame P:41399 Avg QP:28.03 size: 46622
x264 [info]: frame B:79476 Avg QP:28.52 size: 22281

Все псы попадают в рай 2

All Dogs Go To Heaven 2

«Heaven help us! Look who's back in the adventure of 2 lifetimes.»



#77
Год выпуска: 1996
Страны: США
Жанры: мультфильм, мелодрама, приключения, семейный
Продолжительность: 01:22:47
Режиссер: Ларри Лекер, Пол Сабелла
Перевод: Дубляж + Профессиональный + авторский + Оригинал

В ролях:
Эрнест Боргнайн, Биби Нойуэрт, Чарли Шин, Хэмилтон Кэмп, Стив Мэккалл, Дэн Кастелланета, Дом ДеЛуис, Тони Джей, Джим Каммингс, Уоллес Шоун

Описание:
Все собаки могут попасть в рай… а некоторые счастливчики — даже вернуться обратно на землю. Именно это и случается, когда озорной кудряшка Чарли Баркин решает разыскать украденный из рая Волшебный Рожок. Предвкушая возможность поразвлечься, Чарли приглашает с собой своего приятеля Итчи. Путешествие начинается!
Не успев опомниться, друзья попадают в беду, но на помощь им приходит добрый мальчишка, убежавший из дома вместе со своей собакой — красавицей ирландским сеттером.
Но времени, чтобы вернуть драгоценный Рожок, остается все меньше и меньше, поэтому Чарли надо спешить! Ему предстоит испытать себя в схватке со злодеями и преодолеть множество препятствий на обратном пути в рай!



Качество: BDRip 1080p (источник: Blu-ray Disc)
Формат: MKV
Видео кодек: H.264 (AVC)
Аудио кодек: AC3
Видео: 1920x1040, 5957 Kbps, 23,976 fps
Звук: 48 kHz, AC3, 2c, 224 kbps Дубляж
Звук: 48 kHz, AC3, 6c, 384 kbps Профессиональный (Многоголосый закадровый)
Звук: 48 kHz, AC3, 2c, 224 kbps Профессиональный Многоголосый (Позитив)
Звук: 48 kHz, AC3, 1c, 128 kbps Авторский одноголосный (П. Санаев)
Звук: 48 kHz, AC3, 6c, 640 kbps Оригинал
Субтитры: Русские, Английские, Украинские



Общее
Формат : Matroska
Версия формата : Version 4 / Version 2
Размер файла : 4,37 Гбайт
Продолжительность : 1 ч. 22 м.
Общий поток : 7556 Кбит/сек
Дата кодирования : UTC 2013-03-24 07:28:28
Программа кодирования : mkvmerge v6.1.0 ('Old Devil') built on Mar 2 2013 14:32:37
Библиотека кодирования : libebml v1.3.0 + libmatroska v1.4.0
Attachment : Yes

Видео
Идентификатор : 1
Формат : AVC
Формат/Информация : Advanced Video Codec
Профиль формата : High@L4.1
Параметр CABAC формата : Да
Параметр ReFrames формата : 4 кадра
Идентификатор кодека : V_MPEG4/ISO/AVC
Продолжительность : 1 ч. 22 м.
Битрейт : 5957 Кбит/сек
Ширина : 1920 пикселей
Высота : 1040 пикселей
Соотношение сторон : 1,85:1
Режим частоты кадров : Постоянный
Частота кадров : 23,976 кадра/сек
Цветовое пространство : YUV
Субдискретизация насыщенности : 4:2:0
Битовая глубина : 8 бит
Тип развёртки : Прогрессивная
Бит/(Пиксели*Кадры) : 0.124
Размер потока : 3,36 Гбайт (77%)
Заголовок : Rip by Dimok
Библиотека кодирования : x264 core 130 r2273 b3065e6
Настройки программы : cabac=1 / ref=4 / deblock=1:0:0 / analyse=0x3:0x133 / me=umh / subme=11 / psy=1 / psy_rd=1.00:0.10 / mixed_ref=1 / me_range=32 / chroma_me=1 / trellis=2 / 8x8dct=1 / cqm=0 / deadzone=21,11 / fast_pskip=0 / chroma_qp_offset=-1 / threads=12 / lookahead_threads=1 / sliced_threads=0 / slices=1 / nr=0 / decimate=0 / interlaced=0 / bluray_compat=0 / constrained_intra=0 / bframes=3 / b_pyramid=2 / b_adapt=2 / b_bias=0 / direct=3 / weightb=1 / open_gop=0 / weightp=2 / keyint=240 / keyint_min=23 / scenecut=40 / intra_refresh=0 / rc_lookahead=69 / rc=2pass / mbtree=1 / bitrate=5957 / ratetol=1.0 / qcomp=0.60 / qpmin=1 / qpmax=69 / qpstep=4 / cplxblur=20.0 / qblur=0.5 / ip_ratio=1.40 / aq=2:0.80
Язык : English
Default : Да
Forced : Нет

Аудио #1
Идентификатор : 2
Формат : AC-3
Формат/Информация : Audio Coding 3
Расширение режима : CM (complete main)
Параметр Endianness формата : Big
Идентификатор кодека : A_AC3
Продолжительность : 1 ч. 22 м.
Вид битрейта : Постоянный
Битрейт : 224 Кбит/сек
Каналы : 2 канала
Расположение каналов : Front: L R
Частота : 48,0 КГц
Битовая глубина : 16 бит
Метод сжатия : С потерями
Размер потока : 133 Мбайт (3%)
Заголовок : Дублаж
Язык : Russian
Default : Да
Forced : Нет

Аудио #2
Идентификатор : 3
Формат : AC-3
Формат/Информация : Audio Coding 3
Расширение режима : CM (complete main)
Параметр Endianness формата : Big
Идентификатор кодека : A_AC3
Продолжительность : 1 ч. 22 м.
Вид битрейта : Постоянный
Битрейт : 384 Кбит/сек
Каналы : 6 каналов
Расположение каналов : Front: L C R, Side: L R, LFE
Частота : 48,0 КГц
Битовая глубина : 16 бит
Метод сжатия : С потерями
Размер потока : 227 Мбайт (5%)
Заголовок : Профессиональный ( Многоголосый)
Язык : Russian
Default : Нет
Forced : Нет

Аудио #3
Идентификатор : 4
Формат : AC-3
Формат/Информация : Audio Coding 3
Расширение режима : CM (complete main)
Параметр Endianness формата : Big
Идентификатор кодека : A_AC3
Продолжительность : 1 ч. 22 м.
Вид битрейта : Постоянный
Битрейт : 224 Кбит/сек
Каналы : 2 канала
Расположение каналов : Front: L R
Частота : 48,0 КГц
Битовая глубина : 16 бит
Метод сжатия : С потерями
Размер потока : 133 Мбайт (3%)
Заголовок : Многоголосый закадровый (Позитив)
Язык : Russian
Default : Нет
Forced : Нет

Аудио #4
Идентификатор : 5
Формат : AC-3
Формат/Информация : Audio Coding 3
Расширение режима : CM (complete main)
Параметр Endianness формата : Big
Идентификатор кодека : A_AC3
Продолжительность : 1 ч. 22 м.
Вид битрейта : Постоянный
Битрейт : 128 Кбит/сек
Каналы : 1 канал
Расположение каналов : Front: C
Частота : 48,0 КГц
Битовая глубина : 16 бит
Метод сжатия : С потерями
Размер потока : 75,8 Мбайт (2%)
Заголовок : Одноголосый закадровый (П. Санаев)
Язык : Russian
Default : Нет
Forced : Нет

Аудио #5
Идентификатор : 6
Формат : AC-3
Формат/Информация : Audio Coding 3
Расширение режима : CM (complete main)
Параметр Endianness формата : Big
Идентификатор кодека : A_AC3
Продолжительность : 1 ч. 22 м.
Вид битрейта : Постоянный
Битрейт : 640 Кбит/сек
Каналы : 6 каналов
Расположение каналов : Front: L C R, Side: L R, LFE
Частота : 48,0 КГц
Битовая глубина : 16 бит
Метод сжатия : С потерями
Размер потока : 379 Мбайт (8%)
Заголовок : Original
Язык : English
Default : Нет
Forced : Нет

Текст #1
Идентификатор : 7
Формат : UTF-8
Идентификатор кодека : S_TEXT/UTF8
Идентификатор кодека/Информация : UTF-8 Plain Text
Заголовок : RUS
Язык : Russian
Default : Да
Forced : Нет

Текст #2
Идентификатор : 8
Формат : UTF-8
Идентификатор кодека : S_TEXT/UTF8
Идентификатор кодека/Информация : UTF-8 Plain Text
Заголовок : RUS
Язык : Russian
Default : Нет
Forced : Нет

Текст #3
Идентификатор : 9
Формат : UTF-8
Идентификатор кодека : S_TEXT/UTF8
Идентификатор кодека/Информация : UTF-8 Plain Text
Заголовок : UKR
Язык : Ukrainian
Default : Нет
Forced : Нет

Текст #4
Идентификатор : 10
Формат : UTF-8
Идентификатор кодека : S_TEXT/UTF8
Идентификатор кодека/Информация : UTF-8 Plain Text
Заголовок : ENG
Язык : English
Default : Нет
Forced : Нет

Меню
00:00:00.000 : en:00:00:00.000
00:06:50.577 : en:00:06:50.577
00:11:14.632 : en:00:11:14.632
00:16:23.149 : en:00:16:23.149
00:22:54.039 : en:00:22:54.039
00:27:47.583 : en:00:27:47.583
00:31:32.474 : en:00:31:32.474
00:38:59.963 : en:00:38:59.963
00:42:27.378 : en:00:42:27.378
00:49:54.950 : en:00:49:54.950
00:54:29.516 : en:00:54:29.516
00:59:42.329 : en:00:59:42.329
01:04:30.950 : en:01:04:30.950
01:11:27.992 : en:01:11:27.992
01:14:34.845 : en:01:14:34.845
01:16:41.013 : en:01:16:41.013
__________________________________________________________
x264 [info]: frame I:1306 Avg QP:20.23 size:151124
x264 [info]: frame P:39588 Avg QP:23.99 size: 48887
x264 [info]: frame B:78217 Avg QP:25.57 size: 19992



   Похожие торренты   Торрент   Размер 
В этой теме нет новых непрочитанных сообщений. Все псы попадают в рай: Дилогия / All Dogs Go To Heaven (1989-1996) AAC- DVDRip

12 | 31

2.41 ГБ

В этой теме нет новых непрочитанных сообщений. Все псы попадают в рай / All Dogs Go to Heaven (1989) BDRip от HQCLUB

98 | 6

1.45 ГБ

В этой теме нет новых непрочитанных сообщений. Все псы попадают в рай 2 / All Dogs Go To Heaven 2 (1996) BDRip 720p

3 | 3

4.91 ГБ

В этой теме нет новых непрочитанных сообщений. Все псы попадают в рай 2 / All Dogs Go to Heaven 2 (1996) BDRip от Youtracker

31 | 5

745.71 МБ

В этой теме нет новых непрочитанных сообщений. Все псы попадают в рай 2 / All Dogs Go To Heaven 2 (1996) BDRip от HQCLUB

46 | 5

1.45 ГБ

В этой теме нет новых непрочитанных сообщений. Все псы попадают в рай / All Dogs Go To Heaven (1989) HDTVRip

2 | 2

4.83 ГБ

В этой теме нет новых непрочитанных сообщений. Все псы попадают в рай / All Dogs Go to Heaven (1989) BDRemux

2 | 3

20.19 ГБ




Вы не можете начинать темы
Вы не можете отвечать на сообщения
Вы не можете редактировать свои сообщения
Вы не можете удалять свои сообщения
Вы не можете добавлять вложения

Перейти:  
Для Мосгорсуда, Роскомнадзора и рекламодателей: mosgorsud-torrent[собачка]yandex.ru
 Вход
ppkBB3cker v.2 © 2008-2014 @ PPK
[ Time : 0.103s | 14 Queries | GZIP : Off ]

Торрент трекер RUTOR.IN, Не можете зайти на rutor.org? Какой новый адрес рутор? Какое зеркало рутор? Не работает rutor.org и зеркала? Тогда наш торрент специально для вас. Rutor.in неофициальное зеркало rutor. В случае если у Вас заблокирован rutor или вдруг Вы не можете на него зайти, то Вы без труда сможете скачать бесплатно и без рекламы последние новинки кино, игр, сериалов и прочего у нас, на Rutor.in. Не нужно использовать прокси, чтобы зайти на рутор, достаточно воспользоваться нашим ресурсом. Все новые фильмы, игры, сериалы, книги и музыка за 2013 и 2014 годы через торрент бесплатно. Скачивайте фильмы в хорошем качестве, игры для пк, xbox, playstation без регистрации. У нас вы найдете новые Зарубежные сериалы и Русские сериалы 2013, 2014, 2015 годов. Оставайтесь с нами, качайте любимые фильмы, игры, сериалы, книги и музыку.