img image001 image001 image001 image001 image001 image001 image001 image001 image001 image001 image001 image001 image001 image001 image001

Planets Sun Sun Sun
Статистика раздачи
Автор: Снежана | Размер: 2.37 ГБ | Добавлен: 27 июл 2013
Раздают: 41    Качают: 7
Скачать торрент
Скачать торрент
Описание торрента

СообщениеДобавлено: 27 июл 2013 

Монстры против Пришельцев / Monsters vs Aliens (2009)
BDRip 720p от DHT-Movies

Название ... : Монстры против Пришельцев
Оригинальное название ... : Monsters vs Aliens
Страна ... : США
Режиссер ... : Роб Леттерман, Конрад Вернон
Перевод ... : Дубляж (Профессиональный[Лицензия BD CEE]) + Оригинал (Английский)
Субтитры ... : Русские/Английские UTF-8 (full)

Роли дублировали:

Глюкоза .... Susan Murphy / Ginormica
Виктор Логинов .... B.O.B.
Александр Ревва .... Dr. Cockroach Ph.D.
Дмитрий Дюжев .... The Missing Link
Сергей Гармаш .... General W.R. Monger

Описание:

В Сюзан Мёрфи, девушку из Калифорнии, прямо в день ее свадьбы попадает метеорит, полный всякой дряни из космоса, в результате чего она вдруг начинает расти и вырастает до пятнадцати метров. Встревоженные появлением нового монстра, военные сразу берутся за дело: Сюзан отлавливают и увозят на секретную правительственную базу.




Год выхода ............. : 2011
#77
Формат ................. : Mkv
Продолжительность ...... : 1 hour 34 mins 22 Secs
Битрейт .. : 2 275 Kbps
Профиль формата.....: CRF/High/Level 4.1
Идентификатор кодека ....... : MPEG-4 AVC/H264/x264
Ширина ....... : 1280 Pixels
Высота ....... : 544 Pixels
Частота кадров ............ : 23.976 fps
Соотношение сторон ........ : 2.35:1
Бит/(Пиксели*Кадры)........ : 0.136
Аудио кодек /Битрейт ....... : AC3 / 640 Kbps
Канальность / Частота ..... : 6 channels / 48.0 KHz
Жанр ............. : Мультфильм | Фантастика | Боевик
Исходник ......... : Blu-Ray CEE 1080p AVC DTS-HDMA 5.1


Релиз группа: | by AVT83

avs [info]: 1280x544p 1:1 @ 2500000/104271 fps (cfr)
x264 [info]: using SAR=1/1
x264 [info]: using cpu capabilities: MMX2 SSE2Fast SSSE3 FastShuffle SSE4.2
x264 [info]: profile High, level 4.1
x264 [info]: frame I:1108 Avg QP:15.61 size: 88979
x264 [info]: frame P:35371 Avg QP:20.89 size: 20012
x264 [info]: frame B:99266 Avg QP:24.10 size: 8413
x264 [info]: consecutive B-frames: 3.6% 3.7% 18.4% 28.1% 20.0% 22.6% 1.6% 0.6% 1.0% 0.3%
x264 [info]: mb I I16..4: 9.6% 62.8% 27.6%
x264 [info]: mb P I16..4: 2.8% 10.6% 2.2% P16..4: 23.3% 22.8% 6.7% 0.0% 0.0% skip:31.5%
x264 [info]: mb B I16..4: 0.4% 2.0% 0.3% B16..8: 27.6% 12.8% 2.1% direct: 3.0% skip:51.8% L0:41.5% L1:46.6% BI:11.9%
x264 [info]: 8x8 transform intra:68.5% inter:62.1%
x264 [info]: coded y,uvDC,uvAC intra: 71.1% 63.7% 37.5% inter: 12.8% 8.9% 2.4%
x264 [info]: i16 v,h,dc,p: 21% 26% 4% 50%
x264 [info]: i8 v,h,dc,ddl,ddr,vr,hd,vl,hu: 7% 9% 7% 10% 13% 12% 15% 12% 15%
x264 [info]: i4 v,h,dc,ddl,ddr,vr,hd,vl,hu: 11% 12% 7% 8% 14% 12% 13% 10% 13%
x264 [info]: i8c dc,h,v,p: 32% 32% 17% 19%
x264 [info]: Weighted P-Frames: Y:2.9% UV:1.5%
x264 [info]: ref P L0: 56.7% 10.2% 13.0% 5.6% 3.6% 3.1% 2.2% 1.5% 1.2% 1.3% 1.1% 0.4% 0.0%
x264 [info]: ref B L0: 80.6% 8.5% 4.4% 2.2% 1.7% 1.0% 0.8% 0.5% 0.3% 0.2%
x264 [info]: ref B L1: 93.1% 6.9%
x264 [info]: kb/s:2319.47

x264 [total]: encoded 135745 frames, 5.77 fps, 2319.47 kb/s
--------------------------------------------------------------------------------
Format : Matroska
Format version : Version 2
File size : 2.37 GiB
Duration : 1h 34mn
Overall bit rate : 3 602 Kbps
Movie name : avt83@DHT-Movies
Encoded date : UTC 2013-03-24 10:52:28
Writing application : mkvmerge v4.0.0 ('The Stars were mine') built on Jun 6 2010 16:18:42
Writing library : libebml v1.0.0 + libmatroska v1.0.0

Video
ID : 1
Format : AVC
Format/Info : Advanced Video Codec
Format profile : High@L4.1
Format settings, CABAC : Yes
Format settings, ReFrames : 11 frames
Codec ID : V_MPEG4/ISO/AVC
Duration : 1h 34mn
Bit rate : 2 250 Kbps
Width : 1 280 pixels
Height : 544 pixels
Display aspect ratio : 2.35:1
Frame rate : 23.976 fps
Color space : YUV
Chroma subsampling : 4:2:0
Bit depth : 8 bits
Scan type : Progressive
Bits/(Pixel*Frame) : 0.135
Stream size : 1.48 GiB (62%)
Writing library : x264 core 119 r2106 07efeb4
Encoding settings : cabac=1 / ref=11 / deblock=1:-1:-1 / analyse=0x3:0x113 / me=umh / subme=11 / psy=1 / psy_rd=0.85:0.00 / mixed_ref=1 / me_range=24 / chroma_me=1 / trellis=2 / 8x8dct=1 / cqm=0 / deadzone=21,11 / fast_pskip=1 / chroma_qp_offset=-2 / threads=6 / sliced_threads=0 / nr=0 / decimate=1 / interlaced=0 / bluray_compat=0 / constrained_intra=0 / bframes=9 / b_pyramid=2 / b_adapt=2 / b_bias=0 / direct=1 / weightb=1 / open_gop=0 / weightp=2 / keyint=240 / keyint_min=23 / scenecut=40 / intra_refresh=0 / rc_lookahead=50 / rc=crf / mbtree=1 / crf=19.5 / qcomp=0.75 / qpmin=0 / qpmax=69 / qpstep=4 / ip_ratio=1.40 / aq=1:0.80
Language : English
Default : No
Forced : No

Audio #1
ID : 2
Format : AC-3
Format/Info : Audio Coding 3
Mode extension : CM (complete main)
Format settings, Endianness : Big
Codec ID : A_AC3
Duration : 1h 34mn
Bit rate mode : Constant
Bit rate : 640 Kbps
Channel(s) : 6 channels
Channel positions : Front: L C R, Side: L R, LFE
Sampling rate : 48.0 KHz
Bit depth : 16 bits
Compression mode : Lossy
Stream size : 432 MiB (18%)
Title : Дубляж CEE
Language : Russian
Default : Yes
Forced : No

Audio #2
ID : 3
Format : AC-3
Format/Info : Audio Coding 3
Mode extension : CM (complete main)
Format settings, Endianness : Big
Codec ID : A_AC3
Duration : 1h 34mn
Bit rate mode : Constant
Bit rate : 640 Kbps
Channel(s) : 6 channels
Channel positions : Front: L C R, Side: L R, LFE
Sampling rate : 48.0 KHz
Bit depth : 16 bits
Compression mode : Lossy
Stream size : 432 MiB (18%)
Title : Оригинал
Language : English
Default : No
Forced : No

Text #1
ID : 4
Format : UTF-8
Codec ID : S_TEXT/UTF8
Codec ID/Info : UTF-8 Plain Text
Title : full
Language : Russian
Default : Yes
Forced : No

Text #2
ID : 5
Format : UTF-8
Codec ID : S_TEXT/UTF8
Codec ID/Info : UTF-8 Plain Text
Title : full
Language : English
Default : No
Forced : No





   Похожие торренты   Торрент   Размер 
В этой теме нет новых непрочитанных сообщений. Монстры против Пришельцев / Monsters vs Aliens (2009) BDRip 720p | 3D-video

4 | 2

3.18 ГБ

В этой теме нет новых непрочитанных сообщений. Монстры против пришельцев / Monsters vs. Aliens (2009) BDRip 720p от Leonardo and Scarabey | Лицензия

383 | 23

3 ГБ

В этой теме нет новых непрочитанных сообщений. Монстры против пришельцев / Monsters vs Aliens (2009) BDRip-AVC | D

11 | 0

2.1 ГБ

В этой теме нет новых непрочитанных сообщений. Монстры против пришельцев / Monsters vs Aliens (2009) BDRip от HQ-ViDEO

298 | 69

1.71 ГБ

В этой теме нет новых непрочитанных сообщений. Монстры против пришельцев / Monsters vs Aliens (2009) BDRip от HELLYWOOD

72 | 20

2.17 ГБ

В этой теме нет новых непрочитанных сообщений. Монстры против пришельцев / Monsters vs Aliens (2009) BDRip 1080p

51 | 7

4.37 ГБ

В этой теме нет новых непрочитанных сообщений. Монстры против пришельцев / Monsters vs Aliens (2009) BDRip от HQCLUB

6 | 7

2.04 ГБ




Вы не можете начинать темы
Вы не можете отвечать на сообщения
Вы не можете редактировать свои сообщения
Вы не можете удалять свои сообщения
Вы не можете добавлять вложения

Перейти:  
Для Мосгорсуда, Роскомнадзора и рекламодателей: mosgorsud-torrent[собачка]yandex.ru
 Вход
ppkBB3cker v.2 © 2008-2014 @ PPK
[ Time : 0.023s | 16 Queries | GZIP : Off ]

Торрент трекер RUTOR.IN, Не можете зайти на rutor.org? Какой новый адрес рутор? Какое зеркало рутор? Не работает rutor.org и зеркала? Тогда наш торрент специально для вас. Rutor.in неофициальное зеркало rutor. В случае если у Вас заблокирован rutor или вдруг Вы не можете на него зайти, то Вы без труда сможете скачать бесплатно и без рекламы последние новинки кино, игр, сериалов и прочего у нас, на Rutor.in. Не нужно использовать прокси, чтобы зайти на рутор, достаточно воспользоваться нашим ресурсом. Все новые фильмы, игры, сериалы, книги и музыка за 2013 и 2014 годы через торрент бесплатно. Скачивайте фильмы в хорошем качестве, игры для пк, xbox, playstation без регистрации. У нас вы найдете новые Зарубежные сериалы и Русские сериалы 2013, 2014, 2015 годов. Оставайтесь с нами, качайте любимые фильмы, игры, сериалы, книги и музыку.