img image001 image001 image001 image001 image001 image001 image001 image001 image001 image001 image001 image001 image001 image001 image001

Planets Sun Sun Sun
Статистика раздачи
Автор: Снежана | Размер: 8.74 ГБ | Добавлен: 27 июл 2013
Раздают: 7    Качают: 6
Скачать торрент
Скачать торрент
Описание торрента

СообщениеДобавлено: 27 июл 2013 

#77


Лис и пес

The Fox and the Hound

«Two friends that didn't know they were supposed to be enemies.»



#77
Год выпуска: 1981
Страны: США / Walt Disney Pictures
Жанры: мультфильм, приключения, семейный
Продолжительность: 01:22:54
Режиссер: Тед Берман, Ричард Рич, Арт Стивенс
Перевод: Дубляж + Профессиональный + авторский + Оригинал

В ролях:
Микки Руни, Курт Рассел, Перл Бэйли, Джек Альбертсон, Сэнди Дункан, Жанетт Нолан, Пэт Баттрем, Джон Фидлер, Джон МакИнтайр, Ричард Бакалян

Описание:
Экранизация книги Дэниэла П. Мэнникса. История про лисенка Тодда и щенка Коппера. Малыши были очень дружны, но когда подросли, одному природа уготовила роль охотника, другому, увы, объекта охоты



Качество: BDRip 1080p (источник: Blu-ray Disc)
Формат: MKV
Видео кодек: H.264 (AVC)
Аудио кодек: AC3
Видео: 1792x1072, 6455 Kbps, 23,976 fps
Звук: 48 kHz, AC3, 2c, 192 kbps Дубляж
Звук: 48 kHz, AC3, 6c, 448 kbps Профессиональный (Многоголосый)
Звук: 48 kHz, AC3, 6c, 448 kbps Оригинал
Субтитры: Русские, Английские
Отдельно:
Звук: 48 kHz, AC3, 6c, 448 kbps Авторский одноголосный (Дохалов Вартан))
Звук: 48 kHz, AC3, 6c, 448 kbps Авторский одноголосный (Авторский (Живов Юрий))



Общее
Формат : Matroska
Версия формата : Version 4 / Version 2
Размер файла : 4,37 Гбайт
Продолжительность : 1 ч. 22 м.
Общий поток : 7546 Кбит/сек
Дата кодирования : UTC 2013-03-25 19:06:51
Программа кодирования : mkvmerge v6.1.0 ('Old Devil') built on Mar 2 2013 14:32:37
Библиотека кодирования : libebml v1.3.0 + libmatroska v1.4.0

Видео
Идентификатор : 1
Формат : AVC
Формат/Информация : Advanced Video Codec
Профиль формата : High@L4.1
Параметр CABAC формата : Да
Параметр ReFrames формата : 4 кадра
Идентификатор кодека : V_MPEG4/ISO/AVC
Продолжительность : 1 ч. 22 м.
Битрейт : 6455 Кбит/сек
Ширина : 1792 пикселя
Высота : 1072 пикселя
Соотношение сторон : 1,672
Режим частоты кадров : Постоянный
Частота кадров : 23,976 кадра/сек
Цветовое пространство : YUV
Субдискретизация насыщенности : 4:2:0
Битовая глубина : 8 бит
Тип развёртки : Прогрессивная
Бит/(Пиксели*Кадры) : 0.140
Размер потока : 3,65 Гбайт (84%)
Заголовок : Rip by Dimok
Библиотека кодирования : x264 core 130 r2273 b3065e6
Настройки программы : cabac=1 / ref=4 / deblock=1:0:0 / analyse=0x3:0x133 / me=umh / subme=11 / psy=1 / psy_rd=1.00:0.10 / mixed_ref=1 / me_range=32 / chroma_me=1 / trellis=2 / 8x8dct=1 / cqm=0 / deadzone=21,11 / fast_pskip=0 / chroma_qp_offset=-1 / threads=12 / lookahead_threads=1 / sliced_threads=0 / slices=1 / nr=0 / decimate=0 / interlaced=0 / bluray_compat=0 / constrained_intra=0 / bframes=3 / b_pyramid=2 / b_adapt=2 / b_bias=0 / direct=3 / weightb=1 / open_gop=0 / weightp=2 / keyint=240 / keyint_min=23 / scenecut=40 / intra_refresh=0 / rc_lookahead=69 / rc=2pass / mbtree=1 / bitrate=6455 / ratetol=1.0 / qcomp=0.61 / qpmin=1 / qpmax=69 / qpstep=4 / cplxblur=20.0 / qblur=0.5 / ip_ratio=1.40 / aq=2:0.70
Язык : English
Default : Да
Forced : Нет

Аудио #1
Идентификатор : 2
Формат : AC-3
Формат/Информация : Audio Coding 3
Расширение режима : CM (complete main)
Параметр Endianness формата : Big
Идентификатор кодека : A_AC3
Продолжительность : 1 ч. 22 м.
Вид битрейта : Постоянный
Битрейт : 192 Кбит/сек
Каналы : 2 канала
Расположение каналов : Front: L R
Частота : 48,0 КГц
Битовая глубина : 16 бит
Метод сжатия : С потерями
Размер потока : 114 Мбайт (3%)
Заголовок : Дубляж
Язык : Russian
Default : Да
Forced : Нет

Аудио #2
Идентификатор : 3
Формат : AC-3
Формат/Информация : Audio Coding 3
Расширение режима : CM (complete main)
Параметр Endianness формата : Big
Идентификатор кодека : A_AC3
Продолжительность : 1 ч. 22 м.
Вид битрейта : Постоянный
Битрейт : 448 Кбит/сек
Каналы : 6 каналов
Расположение каналов : Front: L C R, Side: L R, LFE
Частота : 48,0 КГц
Битовая глубина : 16 бит
Метод сжатия : С потерями
Размер потока : 266 Мбайт (6%)
Заголовок : Профессиональный (многоголосый закадровый) Карусель
Язык : Russian
Default : Нет
Forced : Нет

Аудио #3
Идентификатор : 4
Формат : AC-3
Формат/Информация : Audio Coding 3
Расширение режима : CM (complete main)
Параметр Endianness формата : Big
Идентификатор кодека : A_AC3
Продолжительность : 1 ч. 22 м.
Вид битрейта : Постоянный
Битрейт : 448 Кбит/сек
Каналы : 6 каналов
Расположение каналов : Front: L C R, Side: L R, LFE
Частота : 48,0 КГц
Битовая глубина : 16 бит
Метод сжатия : С потерями
Размер потока : 266 Мбайт (6%)
Заголовок : Original
Язык : English
Default : Нет
Forced : Нет

Текст #1
Идентификатор : 5
Формат : UTF-8
Идентификатор кодека : S_TEXT/UTF8
Идентификатор кодека/Информация : UTF-8 Plain Text
Заголовок : RUS
Язык : Russian
Default : Да
Forced : Нет

Текст #2
Идентификатор : 6
Формат : UTF-8
Идентификатор кодека : S_TEXT/UTF8
Идентификатор кодека/Информация : UTF-8 Plain Text
Заголовок : ENG
Язык : English
Default : Нет
Forced : Нет

Меню
00:00:00.000 : :1. Opening Credits
00:04:32.564 : :2. Orphaned
00:07:46.591 : :3. Widow Tweed Adopts Tod
00:10:02.560 : :4. A Surprise for Chief
00:11:32.400 : :5. Mischief in the Barn
00:17:46.107 : :6. Tod and Copper Meet
00:18:51.047 : :7. "The Best of Friends"
00:23:06.343 : :8. Tod Gets Into Trouble
00:27:44.288 : :9. Cooped Up
00:30:40.756 : :10. "Lack of Education"
00:37:55.857 : :11. The Next Spring
00:43:20.223 : :12. A Difficult Reunion
00:48:16.310 : :13. The Aftermath
00:50:46.752 : :14. "Goodbye May Seem Forever"
00:57:51.051 : :15. Big Mama Comes Looking for Tod
01:01:28.685 : :16. Tod Meets Vixey
01:05:01.272 : :17. "Appreciate the Lady"
01:08:27.854 : :18. The Hunter Seeks Revenge
01:13:56.390 : :19. An Unexpected Turn of Events
01:17:05.871 : :20. Copper Saves Tod
________________________________________________________________
x264 [info]: frame I:1148 Avg QP:20.20 size:181827
x264 [info]: frame P:37311 Avg QP:23.26 size: 58805
x264 [info]: frame B:80812 Avg QP:25.09 size: 19938

Лис и пес 2

The Fox and the Hound 2



#77
Год выпуска: 2006
Страны: США / DisneyToon Studios
Жанры: мультфильм, комедия, семейный
Продолжительность: 01:09:28
Режиссер: Джим Каммеруд
Перевод: Дубляж + Оригинал

В ролях:
Йон Бобо, Харрисон Фан, Патрик Суэйзи, Риба МакИнтайр, Роб Полсен, Вики Лоуренс, Джим Каммингс, Джефф Фоксворти, Кэт Сауси, Стивен Рут

Описание:
Тод и Копер все еще как ниточка и иголочка, но когда у Коппера появляется шанс попасть в супер группу, их дружба подвергается испытанию.



Качество: BDRip 1080p (источник: Blu-ray Disc)
Формат: MKV
Видео кодек: H.264 (AVC)
Аудио кодек: AC3
Видео: 1920x1080, 7739 Kbps, 23,976 fps
Звук: 48 kHz, AC3, 6c, 640 kbps Дубляж
Звук: 48 kHz, AC3, 6c, 640 kbps Оригинал
Субтитры: Русские, Английские
Отдельно:
Звук: 48 kHz, AC3, 6c, 448 kbps Двухголосый закадровый



Общее
Формат : Matroska
Версия формата : Version 4 / Version 2
Размер файла : 4,37 Гбайт
Продолжительность : 1 ч. 9 м.
Общий поток : 9003 Кбит/сек
Дата кодирования : UTC 2013-03-25 19:18:00
Программа кодирования : mkvmerge v6.1.0 ('Old Devil') built on Mar 2 2013 14:32:37
Библиотека кодирования : libebml v1.3.0 + libmatroska v1.4.0

Видео
Идентификатор : 1
Формат : AVC
Формат/Информация : Advanced Video Codec
Профиль формата : High@L4.1
Параметр CABAC формата : Да
Параметр ReFrames формата : 4 кадра
Идентификатор кодека : V_MPEG4/ISO/AVC
Продолжительность : 1 ч. 9 м.
Битрейт : 7739 Кбит/сек
Ширина : 1920 пикселей
Высота : 1080 пикселей
Соотношение сторон : 16:9
Режим частоты кадров : Постоянный
Частота кадров : 23,976 кадра/сек
Цветовое пространство : YUV
Субдискретизация насыщенности : 4:2:0
Битовая глубина : 8 бит
Тип развёртки : Прогрессивная
Бит/(Пиксели*Кадры) : 0.156
Размер потока : 3,66 Гбайт (84%)
Заголовок : Rip by Dimok
Библиотека кодирования : x264 core 130 r2273 b3065e6
Настройки программы : cabac=1 / ref=4 / deblock=1:0:0 / analyse=0x3:0x133 / me=umh / subme=11 / psy=1 / psy_rd=1.00:0.10 / mixed_ref=1 / me_range=32 / chroma_me=1 / trellis=2 / 8x8dct=1 / cqm=0 / deadzone=21,11 / fast_pskip=0 / chroma_qp_offset=-1 / threads=12 / lookahead_threads=1 / sliced_threads=0 / slices=1 / nr=0 / decimate=0 / interlaced=0 / bluray_compat=0 / constrained_intra=0 / bframes=3 / b_pyramid=2 / b_adapt=2 / b_bias=0 / direct=3 / weightb=1 / open_gop=0 / weightp=2 / keyint=240 / keyint_min=23 / scenecut=40 / intra_refresh=0 / rc_lookahead=69 / rc=2pass / mbtree=1 / bitrate=7739 / ratetol=1.0 / qcomp=0.61 / qpmin=1 / qpmax=69 / qpstep=4 / cplxblur=20.0 / qblur=0.5 / ip_ratio=1.40 / aq=2:0.70
Язык : English
Default : Да
Forced : Нет

Аудио #1
Идентификатор : 2
Формат : AC-3
Формат/Информация : Audio Coding 3
Расширение режима : CM (complete main)
Параметр Endianness формата : Big
Идентификатор кодека : A_AC3
Продолжительность : 1 ч. 9 м.
Вид битрейта : Постоянный
Битрейт : 640 Кбит/сек
Каналы : 6 каналов
Расположение каналов : Front: L C R, Side: L R, LFE
Частота : 48,0 КГц
Битовая глубина : 16 бит
Метод сжатия : С потерями
Размер потока : 318 Мбайт (7%)
Заголовок : Дубляж
Язык : Russian
Default : Да
Forced : Нет

Аудио #2
Идентификатор : 3
Формат : AC-3
Формат/Информация : Audio Coding 3
Расширение режима : CM (complete main)
Параметр Endianness формата : Big
Идентификатор кодека : A_AC3
Продолжительность : 1 ч. 9 м.
Вид битрейта : Постоянный
Битрейт : 640 Кбит/сек
Каналы : 6 каналов
Расположение каналов : Front: L C R, Side: L R, LFE
Частота : 48,0 КГц
Битовая глубина : 16 бит
Метод сжатия : С потерями
Размер потока : 318 Мбайт (7%)
Заголовок : Original
Язык : English
Default : Нет
Forced : Нет

Текст #1
Идентификатор : 4
Формат : UTF-8
Идентификатор кодека : S_TEXT/UTF8
Идентификатор кодека/Информация : UTF-8 Plain Text
Заголовок : RUS
Язык : Russian
Default : Да
Forced : Нет

Текст #2
Идентификатор : 5
Формат : UTF-8
Идентификатор кодека : S_TEXT/UTF8
Идентификатор кодека/Информация : UTF-8 Plain Text
Заголовок : ENG
Язык : English
Default : Нет
Forced : Нет

Меню
00:00:00.000 : en:00:00:00.000
00:04:52.083 : en:00:04:52.083
00:10:43.726 : en:00:10:43.726
00:18:02.999 : en:00:18:02.999
00:21:52.937 : en:00:21:52.937
00:25:36.076 : en:00:25:36.076
00:29:21.051 : en:00:29:21.051
00:34:56.636 : en:00:34:56.636
00:39:54.392 : en:00:39:54.392
00:46:00.549 : en:00:46:00.549
00:50:49.630 : en:00:50:49.630
01:01:05.203 : en:01:01:05.203
__________________________________________________________
x264 [info]: frame I:1172 Avg QP:10.95 size:267296
x264 [info]: frame P:36643 Avg QP:15.10 size: 72398
x264 [info]: frame B:61912 Avg QP:17.89 size: 17081



   Похожие торренты   Торрент   Размер 
В этой теме нет новых непрочитанных сообщений. Лис и пес 1-2 / The Fox and the Hound 1-2 (1981-2006) BDRip 720p от Freeisland

4 | 4

6.28 ГБ

В этой теме нет новых непрочитанных сообщений. Лис и пес / The Fox and the Hound (1981) BDRip 1080p от HD Club

3 | 2

13.48 ГБ

В этой теме нет новых непрочитанных сообщений. Лис и охотничий пес 1-2 / The Fox and the Hound 1-2 (1981-2006) DVDRip от KINOREAKTOR

60 | 3

3.14 ГБ

В этой теме нет новых непрочитанных сообщений. Лис и пес 2 / The Fox and the Hound 2 (2006) BDRip 1080p от HD Club

11 | 4

5.58 ГБ

В этой теме нет новых непрочитанных сообщений. Лис и пес / The Fox and the Hound (1981) BDRip от HQCLUB

108 | 14

1.45 ГБ

В этой теме нет новых непрочитанных сообщений. Лис и пес / The Fox and the Hound (1981) BDRip-AVC от Gold Cartoon KINOREAKTOR (Sheikn)

4 | 3

3.23 ГБ

В этой теме нет новых непрочитанных сообщений. Лис и пес 2 / The Fox and the Hound 2 (2006) BDRip от HQCLUB

58 | 8

1.09 ГБ




Вы не можете начинать темы
Вы не можете отвечать на сообщения
Вы не можете редактировать свои сообщения
Вы не можете удалять свои сообщения
Вы не можете добавлять вложения

Перейти:  
Для Мосгорсуда, Роскомнадзора и рекламодателей: mosgorsud-torrent[собачка]yandex.ru
 Вход
ppkBB3cker v.2 © 2008-2014 @ PPK
[ Time : 0.019s | 14 Queries | GZIP : Off ]

Торрент трекер RUTOR.IN, Не можете зайти на rutor.org? Какой новый адрес рутор? Какое зеркало рутор? Не работает rutor.org и зеркала? Тогда наш торрент специально для вас. Rutor.in неофициальное зеркало rutor. В случае если у Вас заблокирован rutor или вдруг Вы не можете на него зайти, то Вы без труда сможете скачать бесплатно и без рекламы последние новинки кино, игр, сериалов и прочего у нас, на Rutor.in. Не нужно использовать прокси, чтобы зайти на рутор, достаточно воспользоваться нашим ресурсом. Все новые фильмы, игры, сериалы, книги и музыка за 2013 и 2014 годы через торрент бесплатно. Скачивайте фильмы в хорошем качестве, игры для пк, xbox, playstation без регистрации. У нас вы найдете новые Зарубежные сериалы и Русские сериалы 2013, 2014, 2015 годов. Оставайтесь с нами, качайте любимые фильмы, игры, сериалы, книги и музыку.