img image001 image001 image001 image001 image001 image001 image001 image001 image001 image001 image001 image001 image001 image001 image001

Planets Sun Sun Sun
Статистика раздачи
Автор: Снежана | Размер: 2.08 ГБ | Добавлен: 27 июл 2013
Раздают: 489    Качают: 19
Скачать торрент
Скачать торрент
Описание торрента

СообщениеДобавлено: 27 июл 2013 

Вольт / Bolt (2008) BDRip 720p от DHT-Movies



Название ... : Вольт
Оригинальное название ... : Bolt
Страна ... : США
Режиссер ... : Байрон Ховард, Крис Уильямс
Перевод ... : Дубляж (Профессиональный[Лицензия BD EUR]) + Оригинал (Английский)
Субтитры ... : Русские/Английские UTF-8 (full)

Роли дублировали:

Владимир Вдовиченков .... Bolt
Мария Иващенко .... Penny
Анжела Белянская .... Mittens
Леонид Барац .... Rhino
Владимир Майсурадзе .... Dr. Calico

Описание:

Пес по кличке «Вольт» всю жизнь снимается в телевизионном сериале, где его герой — суперпес — спасает человечество, используя свои необычайные способности. Сам Вольт свято верит в собственную неуязвимость, невероятную силу, и умение летать. Когда же судьба забрасывает его в полный опасностей Большой Город, он все еще думает, что это — лишь очередной эпизод телесериала…




Год выхода ............. : 2008
#77
Формат ................. : Mkv
Продолжительность ...... : 1 hour 36 mins 22 Secs
Битрейт .. : 1 744 Kbps
Профиль формата.....: CRF/High/Level 4.1
Идентификатор кодека ....... : MPEG-4 AVC/H264/x264
Ширина ....... : 1280 Pixels
Высота ....... : 720 Pixels
Частота кадров ............ : 23.976 fps
Соотношение сторон ........ : 16:9
Бит/(Пиксели*Кадры)........ : 0.079
Аудио кодек /Битрейт ....... : AC3 / 640 Kbps
Канальность / Частота ..... : 6 channels / 48.0 KHz
Жанр ............. : Мультфильм | Комедия
Исходник ......... : Blu-ray EUR 1080p AVC DD5.1- HDClub


Релиз группа: | by AVT83

avs [info]: 1280x720p 1:1 @ 2500000/104271 fps (cfr)
x264 [info]: using SAR=1/1
x264 [info]: using cpu capabilities: MMX2 SSE2Fast SSSE3 FastShuffle SSE4.2
x264 [info]: profile High, level 4.1
x264 [info]: frame I:1184 Avg QP:15.02 size:125375
x264 [info]: frame P:36918 Avg QP:19.92 size: 16889
x264 [info]: frame B:100525 Avg QP:22.81 size: 5288
x264 [info]: consecutive B-frames: 3.8% 3.0% 28.0% 21.5% 10.7% 29.2% 1.8% 0.8% 0.8% 0.4%
x264 [info]: mb I I16..4: 7.9% 67.5% 24.6%
x264 [info]: mb P I16..4: 2.0% 6.7% 1.1% P16..4: 24.0% 21.4% 5.4% 0.0% 0.0% skip:39.4%
x264 [info]: mb B I16..4: 0.2% 0.8% 0.1% B16..8: 24.4% 8.8% 1.2% direct: 1.6% skip:63.0% L0:42.4% L1:49.6% BI: 8.0%
x264 [info]: 8x8 transform intra:68.4% inter:69.4%
x264 [info]: coded y,uvDC,uvAC intra: 69.5% 66.8% 36.5% inter: 8.2% 6.4% 1.1%
x264 [info]: i16 v,h,dc,p: 21% 16% 5% 59%
x264 [info]: i8 v,h,dc,ddl,ddr,vr,hd,vl,hu: 8% 10% 6% 9% 13% 12% 15% 12% 15%
x264 [info]: i4 v,h,dc,ddl,ddr,vr,hd,vl,hu: 11% 14% 6% 9% 14% 12% 13% 9% 13%
x264 [info]: i8c dc,h,v,p: 30% 33% 18% 20%
x264 [info]: Weighted P-Frames: Y:2.4% UV:1.6%
x264 [info]: ref P L0: 54.9% 8.9% 14.3% 6.3% 4.1% 3.9% 3.1% 1.9% 1.7% 0.8% 0.0%
x264 [info]: ref B L0: 76.3% 10.5% 5.7% 2.5% 1.9% 1.6% 1.3% 0.4%
x264 [info]: ref B L1: 92.0% 8.0%
x264 [info]: kb/s:1803.60

x264 [total]: encoded 138627 frames, 5.52 fps, 1803.60 kb/s
--------------------------------------------------------------------------------
Format : Matroska
Format version : Version 2
File size : 2.08 GiB
Duration : 1h 36mn
Overall bit rate : 3 086 Kbps
Movie name : avt83@DHT-Movies
Encoded date : UTC 2013-03-26 12:29:07
Writing application : mkvmerge v4.0.0 ('The Stars were mine') built on Jun 6 2010 16:18:42
Writing library : libebml v1.0.0 + libmatroska v1.0.0

Video
ID : 1
Format : AVC
Format/Info : Advanced Video Codec
Format profile : High@L4.1
Format settings, CABAC : Yes
Format settings, ReFrames : 9 frames
Codec ID : V_MPEG4/ISO/AVC
Duration : 1h 36mn
Bit rate : 1 744 Kbps
Width : 1 280 pixels
Height : 720 pixels
Display aspect ratio : 16:9
Frame rate : 23.976 fps
Color space : YUV
Chroma subsampling : 4:2:0
Bit depth : 8 bits
Scan type : Progressive
Bits/(Pixel*Frame) : 0.079
Stream size : 1.17 GiB (57%)
Writing library : x264 core 119 r2106 07efeb4
Encoding settings : cabac=1 / ref=9 / deblock=1:-1:-1 / analyse=0x3:0x113 / me=umh / subme=11 / psy=1 / psy_rd=0.85:0.00 / mixed_ref=1 / me_range=24 / chroma_me=1 / trellis=2 / 8x8dct=1 / cqm=0 / deadzone=21,11 / fast_pskip=1 / chroma_qp_offset=-2 / threads=6 / sliced_threads=0 / nr=0 / decimate=1 / interlaced=0 / bluray_compat=0 / constrained_intra=0 / bframes=9 / b_pyramid=2 / b_adapt=2 / b_bias=0 / direct=1 / weightb=1 / open_gop=0 / weightp=2 / keyint=240 / keyint_min=23 / scenecut=40 / intra_refresh=0 / rc_lookahead=50 / rc=crf / mbtree=1 / crf=19.0 / qcomp=0.75 / qpmin=0 / qpmax=69 / qpstep=4 / vbv_maxrate=50000 / vbv_bufsize=62500 / crf_max=0.0 / nal_hrd=none / ip_ratio=1.40 / aq=1:0.80
Language : English
Default : No
Forced : No

Audio #1
ID : 2
Format : AC-3
Format/Info : Audio Coding 3
Mode extension : CM (complete main)
Format settings, Endianness : Big
Codec ID : A_AC3
Duration : 1h 36mn
Bit rate mode : Constant
Bit rate : 640 Kbps
Channel(s) : 6 channels
Channel positions : Front: L C R, Side: L R, LFE
Sampling rate : 48.0 KHz
Bit depth : 16 bits
Compression mode : Lossy
Stream size : 441 MiB (21%)
Title : Дубляж BD EUR
Language : Russian
Default : Yes
Forced : No

Audio #2
ID : 3
Format : AC-3
Format/Info : Audio Coding 3
Mode extension : CM (complete main)
Format settings, Endianness : Big
Codec ID : A_AC3
Duration : 1h 36mn
Bit rate mode : Constant
Bit rate : 640 Kbps
Channel(s) : 6 channels
Channel positions : Front: L C R, Side: L R, LFE
Sampling rate : 48.0 KHz
Bit depth : 16 bits
Compression mode : Lossy
Stream size : 441 MiB (21%)
Title : Оригинал
Language : English
Default : No
Forced : No

Text #1
ID : 4
Format : UTF-8
Codec ID : S_TEXT/UTF8
Codec ID/Info : UTF-8 Plain Text
Title : full
Language : Russian
Default : Yes
Forced : No

Text #2
ID : 5
Format : UTF-8
Codec ID : S_TEXT/UTF8
Codec ID/Info : UTF-8 Plain Text
Title : full
Language : English
Default : No
Forced : No




   Похожие торренты   Торрент   Размер 
В этой теме нет новых непрочитанных сообщений. Вольт 3D / Bolt 3D (2008) BDRip 720p

14 | 7

3.74 ГБ

В этой теме нет новых непрочитанных сообщений. Вольт / Bolt (2008) BDRip 720p от NNNB | 60 fps

237 | 33

4.09 ГБ

В этой теме нет новых непрочитанных сообщений. Вольт / Bolt (2008) BDRip-AVC

106 | 11

701.43 МБ

В этой теме нет новых непрочитанных сообщений. Вольт / Bolt (2008) BDRip-AVC от R.G. AVI | AVC

39 | 9

2.18 ГБ

В этой теме нет новых непрочитанных сообщений. Вольт / Bolt (2008) BDRip от HQCLUB

87 | 14

1.71 ГБ

В этой теме нет новых непрочитанных сообщений. Вольт / Bolt (2008) BDRip от HELLYWOOD

2103 | 57

1.45 ГБ

В этой теме нет новых непрочитанных сообщений. Вольт / Bolt (2008) BDRip-AVC | iPad

53 | 4

1.92 ГБ




Вы не можете начинать темы
Вы не можете отвечать на сообщения
Вы не можете редактировать свои сообщения
Вы не можете удалять свои сообщения
Вы не можете добавлять вложения

Перейти:  
Для Мосгорсуда, Роскомнадзора и рекламодателей: mosgorsud-torrent[собачка]yandex.ru
 Вход
ppkBB3cker v.2 © 2008-2014 @ PPK
[ Time : 0.707s | 15 Queries | GZIP : Off ]

Торрент трекер RUTOR.IN, Не можете зайти на rutor.org? Какой новый адрес рутор? Какое зеркало рутор? Не работает rutor.org и зеркала? Тогда наш торрент специально для вас. Rutor.in неофициальное зеркало rutor. В случае если у Вас заблокирован rutor или вдруг Вы не можете на него зайти, то Вы без труда сможете скачать бесплатно и без рекламы последние новинки кино, игр, сериалов и прочего у нас, на Rutor.in. Не нужно использовать прокси, чтобы зайти на рутор, достаточно воспользоваться нашим ресурсом. Все новые фильмы, игры, сериалы, книги и музыка за 2013 и 2014 годы через торрент бесплатно. Скачивайте фильмы в хорошем качестве, игры для пк, xbox, playstation без регистрации. У нас вы найдете новые Зарубежные сериалы и Русские сериалы 2013, 2014, 2015 годов. Оставайтесь с нами, качайте любимые фильмы, игры, сериалы, книги и музыку.
cron