img image001 image001 image001 image001 image001 image001 image001 image001 image001 image001 image001 image001 image001 image001 image001

Planets Sun Sun Sun
Статистика раздачи
Автор: Снежана | Размер: 2.33 ГБ | Добавлен: 27 июл 2013
Раздают: 214    Качают: 9
Скачать торрент
Скачать торрент
Описание торрента

СообщениеДобавлено: 27 июл 2013 

Облачно, возможны осадки в виде фрикаделек / Cloudy with a Chance of Meatballs (2009) BDRip 720p от DHT-Movies

Название ... : Облачно, возможны осадки в виде фрикаделек
Оригинальное название ... : Cloudy with a Chance of Meatballs
Страна ... : США
Режиссер ... : Фил Лорд, Крис Миллер
Перевод ... : Дубляж (Профессиональный[Лицензия BD CEE]) + Оригинал (Английский)
Субтитры ... : Русские/Английские UTF-8 (full)

Роли дублировали:

Александр Пушной .... Flint Lockwood
Ксения Бржезовская .... Sam Sparks
Михаил Шац .... Tim Lockwood
Иван Чабан .... Cal Devereaux
Татьяна Лазарева .... Fran Lockwood
Описание:

Главный герой мультфильма — странный ученый Флинт Локвуд, который всегда хотел изобрести что-то такое, что сделает его родной городок счастливым. И вот, у него получилось! Еды теперь хватает всем, и она просто падает с неба, создавая новые пейзажи вокруг: можно любоваться закатом с живописных холмов из фруктового желе. Но иногда вкусные осадки в виде фрикаделек могут превратиться в настоящий торнадо из аппетитных, но уже опасных спагетти! Гениальному ученому и его друзьям предстоит исправить положение дел в сытом городке.




Год выхода ............. : 2009
Формат ................. : Mkv
Продолжительность ...... : 1 hour 29 mins 53 Secs
Битрейт .. : 2 389 Kbps
Профиль формата.....: CRF/High/Level 4.1
Идентификатор кодека ....... : MPEG-4 AVC/H264/x264
Ширина ....... : 1280 Pixels
Высота ....... : 544 Pixels
Частота кадров ............ : 23.976 fps
Соотношение сторон ........ : 2.35:1
Бит/(Пиксели*Кадры)........ : 0.143
Аудио кодек /Битрейт ....... : AC3 / 640 Kbps
Канальность / Частота ..... : 6 channels / 48.0 KHz
Жанр ............. : Мультфильм | Комедия | Семейный
Исходник ......... : 1080p CEE Bluray AVC DD5.1 - EiMi


Релиз группа: | by AVT83

avs [info]: 1280x544p 1:1 @ 2500000/104271 fps (cfr)
x264 [info]: using SAR=1/1
x264 [info]: using cpu capabilities: MMX2 SSE2Fast SSSE3 FastShuffle SSE4.2
x264 [info]: profile High, level 4.1
x264 [info]: frame I:1137 Avg QP:15.53 size: 97755
x264 [info]: frame P:31431 Avg QP:19.92 size: 24138
x264 [info]: frame B:96745 Avg QP:22.85 size: 7982
x264 [info]: consecutive B-frames: 3.2% 3.9% 7.7% 42.9% 10.0% 16.1% 3.0% 12.1% 0.6% 0.3% 0.3%
x264 [info]: mb I I16..4: 9.2% 65.5% 25.3%
x264 [info]: mb P I16..4: 2.6% 11.2% 1.9% P16..4: 28.1% 27.9% 8.4% 0.0% 0.0% skip:19.8%
x264 [info]: mb B I16..4: 0.3% 1.7% 0.3% B16..8: 29.7% 13.5% 2.3% direct: 3.6% skip:48.7% L0:41.9% L1:46.8% BI:11.3%
x264 [info]: 8x8 transform intra:71.2% inter:68.4%
x264 [info]: coded y,uvDC,uvAC intra: 76.0% 85.9% 63.3% inter: 14.0% 17.6% 6.5%
x264 [info]: i16 v,h,dc,p: 11% 13% 4% 73%
x264 [info]: i8 v,h,dc,ddl,ddr,vr,hd,vl,hu: 8% 9% 4% 10% 14% 13% 15% 12% 15%
x264 [info]: i4 v,h,dc,ddl,ddr,vr,hd,vl,hu: 11% 12% 4% 9% 15% 13% 14% 10% 13%
x264 [info]: i8c dc,h,v,p: 33% 25% 18% 25%
x264 [info]: Weighted P-Frames: Y:3.7% UV:2.8%
x264 [info]: ref P L0: 53.3% 10.4% 15.5% 6.0% 4.3% 3.6% 2.9% 1.8% 1.7% 0.3% 0.0%
x264 [info]: ref B L0: 77.7% 10.2% 5.5% 2.4% 1.8% 1.3% 0.8% 0.3%
x264 [info]: ref B L1: 93.1% 6.9%
x264 [info]: kb/s:2435.65

x264 [total]: encoded 129313 frames, 5.33 fps, 2435.65 kb/s
--------------------------------------------------------------------------------
Format : Matroska
Format version : Version 2
File size : 2.33 GiB
Duration : 1h 29mn
Overall bit rate : 3 718 Kbps
Movie name : avt83@DHT-Movies
Encoded date : UTC 2013-03-27 14:08:22
Writing application : mkvmerge v4.0.0 ('The Stars were mine') built on Jun 6 2010 16:18:42
Writing library : libebml v1.0.0 + libmatroska v1.0.0

Video
ID : 1
Format : AVC
Format/Info : Advanced Video Codec
Format profile : High@L4.1
Format settings, CABAC : Yes
Format settings, ReFrames : 9 frames
Codec ID : V_MPEG4/ISO/AVC
Duration : 1h 29mn
Bit rate : 2 364 Kbps
Width : 1 280 pixels
Height : 544 pixels
Display aspect ratio : 2.35:1
Frame rate : 23.976 fps
Color space : YUV
Chroma subsampling : 4:2:0
Bit depth : 8 bits
Scan type : Progressive
Bits/(Pixel*Frame) : 0.142
Stream size : 1.48 GiB (64%)
Writing library : x264 core 119 r2106 07efeb4
Encoding settings : cabac=1 / ref=9 / deblock=1:-1:-1 / analyse=0x3:0x113 / me=umh / subme=11 / psy=1 / psy_rd=0.85:0.05 / mixed_ref=1 / me_range=24 / chroma_me=1 / trellis=2 / 8x8dct=1 / cqm=0 / deadzone=21,11 / fast_pskip=1 / chroma_qp_offset=-3 / threads=6 / sliced_threads=0 / nr=0 / decimate=1 / interlaced=0 / bluray_compat=0 / constrained_intra=0 / bframes=10 / b_pyramid=2 / b_adapt=2 / b_bias=0 / direct=1 / weightb=1 / open_gop=0 / weightp=2 / keyint=240 / keyint_min=23 / scenecut=40 / intra_refresh=0 / rc_lookahead=50 / rc=crf / mbtree=1 / crf=18.7 / qcomp=0.75 / qpmin=0 / qpmax=69 / qpstep=4 / vbv_maxrate=50000 / vbv_bufsize=62500 / crf_max=0.0 / nal_hrd=none / ip_ratio=1.40 / aq=1:0.80
Language : English
Default : No
Forced : No

Audio #1
ID : 2
Format : AC-3
Format/Info : Audio Coding 3
Mode extension : CM (complete main)
Format settings, Endianness : Big
Codec ID : A_AC3
Duration : 1h 29mn
Bit rate mode : Constant
Bit rate : 640 Kbps
Channel(s) : 6 channels
Channel positions : Front: L C R, Side: L R, LFE
Sampling rate : 48.0 KHz
Bit depth : 16 bits
Compression mode : Lossy
Stream size : 411 MiB (17%)
Title : Дубляж CEE
Language : Russian
Default : Yes
Forced : No

Audio #2
ID : 3
Format : AC-3
Format/Info : Audio Coding 3
Mode extension : CM (complete main)
Format settings, Endianness : Big
Codec ID : A_AC3
Duration : 1h 29mn
Bit rate mode : Constant
Bit rate : 640 Kbps
Channel(s) : 6 channels
Channel positions : Front: L C R, Side: L R, LFE
Sampling rate : 48.0 KHz
Bit depth : 16 bits
Compression mode : Lossy
Stream size : 411 MiB (17%)
Default : No
Forced : No

Text #1
ID : 4
Format : UTF-8
Codec ID : S_TEXT/UTF8
Codec ID/Info : UTF-8 Plain Text
Title : full
Language : Russian
Default : Yes
Forced : No

Text #2
ID : 5
Format : UTF-8
Codec ID : S_TEXT/UTF8
Codec ID/Info : UTF-8 Plain Text
Title : full
Language : English
Default : No
Forced : No




   Похожие торренты   Торрент   Размер 
В этой теме нет новых непрочитанных сообщений. Облачно, возможны осадки в виде фрикаделек / Cloudy with a Chance of Meatballs (2009) BDRip от HQCLUB

158 | 26

2.02 ГБ

В этой теме нет новых непрочитанных сообщений. Облачно, возможны осадки в виде фрикаделек / Cloudy with a Chance of Meatballs (2009) BDRip 1080p

31 | 14

4.37 ГБ

В этой теме нет новых непрочитанных сообщений. Облачно, возможны осадки в виде фрикаделек / Cloudy with a Chance of Meatballs (2009) BDRip от HQ-ViDEO | D

774 | 45

1.46 ГБ

В этой теме нет новых непрочитанных сообщений. Облачно, возможны осадки в виде фрикаделек / Cloudy with a Chance of Meatballs (2009) BDRip от HELLYWOOD

60 | 114

2.02 ГБ

В этой теме нет новых непрочитанных сообщений. Облачно, возможны осадки в виде фрикаделек / Cloudy with a Chance of Meatballs (2009) PC

34 | 4

2.17 ГБ

В этой теме нет новых непрочитанных сообщений. Cloudy with a Chance of Meatballs / Облачно, возможны осадки в виде фрикаделек (2009) PC

35 | 2

1.09 ГБ

В этой теме нет новых непрочитанных сообщений. Облачно, возможны осадки в виде фрикаделек / Cloudy with a Chance of Meatballs (2009) BDRip 720p от NOLIMITS-TEAM | 3D-Video

3 | 2

2.43 ГБ




Вы не можете начинать темы
Вы не можете отвечать на сообщения
Вы не можете редактировать свои сообщения
Вы не можете удалять свои сообщения
Вы не можете добавлять вложения

Перейти:  
Для Мосгорсуда, Роскомнадзора и рекламодателей: mosgorsud-torrent[собачка]yandex.ru
 Вход
ppkBB3cker v.2 © 2008-2014 @ PPK
[ Time : 0.576s | 16 Queries | GZIP : Off ]

Торрент трекер RUTOR.IN, Не можете зайти на rutor.org? Какой новый адрес рутор? Какое зеркало рутор? Не работает rutor.org и зеркала? Тогда наш торрент специально для вас. Rutor.in неофициальное зеркало rutor. В случае если у Вас заблокирован rutor или вдруг Вы не можете на него зайти, то Вы без труда сможете скачать бесплатно и без рекламы последние новинки кино, игр, сериалов и прочего у нас, на Rutor.in. Не нужно использовать прокси, чтобы зайти на рутор, достаточно воспользоваться нашим ресурсом. Все новые фильмы, игры, сериалы, книги и музыка за 2013 и 2014 годы через торрент бесплатно. Скачивайте фильмы в хорошем качестве, игры для пк, xbox, playstation без регистрации. У нас вы найдете новые Зарубежные сериалы и Русские сериалы 2013, 2014, 2015 годов. Оставайтесь с нами, качайте любимые фильмы, игры, сериалы, книги и музыку.