img image001 image001 image001 image001 image001 image001 image001 image001 image001 image001 image001 image001 image001 image001 image001

Planets Sun Sun Sun
Статистика раздачи
Автор: Снежана | Размер: 700.02 МБ | Добавлен: 27 июл 2013
Раздают: 1073    Качают: 27
Скачать торрент
Скачать торрент
Описание торрента

СообщениеДобавлено: 27 июл 2013 

#77

Информация о фильме
Название: Три котёнка
Год выхода: 2009
Жанр: мультфильм
Режиссер: Дмитрий Наумов

О фильме:
Сериал для самых маленьких зрителей. В легкой игровой форме в каждой серии — забавная история про трех котят, которые, как и все дети, попадают в различные ситуации из-за своего любопытства. Для чего надо чистить зубы, почему нельзя рвать книжки, почему нельзя звонить без необходимости на 01, 02, 03 — на эти и другие вопросы найдутся ответы в сериале «Три котенка».


Страна: Россия
Студия: Мастер-фильм
Продолжительность: 00:38:47
Перевод: Не требуется

Файл
Кодек: XviD / MP3
Качество: DVDRip
Видео: XviD, 720x544 (4:3), 25.000 fps, 2 195 Kbps (0.224 bit/pixel)
Звук: MP3, 48.0 KHz, 2 ch, 320 Kbps, CBR (Russian)

General
Complete name : /media/Tri.Kotenka_DVDRip.700_[Rutor.org].avi
Format : AVI
Format/Info : Audio Video Interleave
File size : 700 MiB
Duration : 38mn 47s
Overall bit rate : 2 523 Kbps
Writing application : VirtualDubMod 1.5.4.1 (build 2178/release)
Writing library : VirtualDubMod build 2178/release

Video
ID : 0
Format : MPEG-4 Visual
Format profile : Advanced Simple@L5
Format settings, BVOP : 1
Format settings, QPel : No
Format settings, GMC : No warppoints
Format settings, Matrix : Custom
Codec ID : XVID
Codec ID/Hint : XviD
Duration : 38mn 47s
Bit rate : 2 195 Kbps
Width : 720 pixels
Height : 544 pixels
Display aspect ratio : 4:3
Frame rate : 25.000 fps
Color space : YUV
Chroma subsampling : 4:2:0
Bit depth : 8 bits
Scan type : Progressive
Compression mode : Lossy
Bits/(Pixel*Frame) : 0.224
Stream size : 609 MiB (87%)
Writing library : XviD 65

Audio
ID : 1
Format : MPEG Audio
Format version : Version 1
Format profile : Layer 3
Mode : Joint stereo
Mode extension : MS Stereo
Codec ID : 55
Codec ID/Hint : MP3
Duration : 38mn 47s
Bit rate mode : Constant
Bit rate : 320 Kbps
Channel(s) : 2 channels
Sampling rate : 48.0 KHz
Compression mode : Lossy
Stream size : 88.8 MiB (13%)
Alignment : Aligned on interleaves
Interleave, duration : 80 ms (2.00 video frames)
Interleave, preload duration : 504 ms
Writing library : LAME3.99r
Encoding settings : -m j -V 4 -q 2 -lowpass 20.5
Language : Russian



   Похожие торренты   Торрент   Размер 
В этой теме нет новых непрочитанных сообщений. Мультяшки в кармашке: Три котенка [04х01-06 из 6] (2009) SATRip

63 | 8

290.1 МБ

В этой теме нет новых непрочитанных сообщений. Мультяшки в кармашке: Три котенка [03х01-10 из 10] (2009) SATRip

353 | 7

477.34 МБ

В этой теме нет новых непрочитанных сообщений. От котенка до кошки / Kittens to Cats (1999) DVDRip

48 | 6

457.28 МБ

В этой теме нет новых непрочитанных сообщений. Мисс Вселенная 2009 / Miss Universe (2009) DVDRip by GENADIY

3 | 1

1.37 ГБ

В этой теме нет новых непрочитанных сообщений. Slipknot - Live in Rock Am Ring 2009 (2009) DVDRip

24 | 10

2.06 ГБ

В этой теме нет новых непрочитанных сообщений. Самая смешная реклама 2009 года / The Funniest Commercials Of The Year 2009 (2009) TVRip

59 | 9

352.48 МБ

В этой теме нет новых непрочитанных сообщений. КВН 2009. Высшая лига. Первая 1/2 финала (эфир 2009.10.25) (2009) SATRip - fanatus

0 | 2

1.35 ГБ




Вы не можете начинать темы
Вы не можете отвечать на сообщения
Вы не можете редактировать свои сообщения
Вы не можете удалять свои сообщения
Вы не можете добавлять вложения

Перейти:  
Для Мосгорсуда, Роскомнадзора и рекламодателей: mosgorsud-torrent[собачка]yandex.ru
 Вход
ppkBB3cker v.2 © 2008-2014 @ PPK
[ Time : 0.047s | 14 Queries | GZIP : Off ]

Торрент трекер RUTOR.IN, Не можете зайти на rutor.org? Какой новый адрес рутор? Какое зеркало рутор? Не работает rutor.org и зеркала? Тогда наш торрент специально для вас. Rutor.in неофициальное зеркало rutor. В случае если у Вас заблокирован rutor или вдруг Вы не можете на него зайти, то Вы без труда сможете скачать бесплатно и без рекламы последние новинки кино, игр, сериалов и прочего у нас, на Rutor.in. Не нужно использовать прокси, чтобы зайти на рутор, достаточно воспользоваться нашим ресурсом. Все новые фильмы, игры, сериалы, книги и музыка за 2013 и 2014 годы через торрент бесплатно. Скачивайте фильмы в хорошем качестве, игры для пк, xbox, playstation без регистрации. У нас вы найдете новые Зарубежные сериалы и Русские сериалы 2013, 2014, 2015 годов. Оставайтесь с нами, качайте любимые фильмы, игры, сериалы, книги и музыку.