img image001 image001 image001 image001 image001 image001 image001 image001 image001 image001 image001 image001 image001 image001 image001

Planets Sun Sun Sun
Статистика раздачи
Автор: Снежана | Размер: 545.68 МБ | Добавлен: 27 июл 2013
Раздают: 4    Качают: 2
Скачать торрент
Скачать торрент
Описание торрента

СообщениеДобавлено: 27 июл 2013 

#77

Информация о фильме

Название : Зигфрид и Рой
Оригинальное название : Siegfried & Roy: Masters of The Impossible
Год выхода : 1996
Жанр : мультфильм, семейный
Режиссер : Эмори Мирик
Роли озвучивали : Эндрю Хоукс, Джефф Беннетт, Чарльз Адлер, Роки Кэрролл, Джим Каммингс, Саманта Эггар, Брэд Гэррет, Дориан Хэрвуд, Билли Хэйес, Тони Джей



Описание : В сказочном государстве Сармоти господствовала магия, но однажды боги разгневались и отобрали ее. Белую забрали с собой, а черную заточили в волшебных камнях. Король Мидас освобождает из заточения пороки: жадность, гордость, властолюбие и зависть. И теперь нашим героям, Зигфриду, Рою и белой тигрице Мантикоре, придется постараться, чтобы заточить их обратно.

Доп. информация: Достаточно забавное хистросплетение античных легенд и скандинавской мифологии в выдуманной земле, которая почему-то называется Англия. Фильм о добре и зле, которые борются за душу человека.
Страна : США
Производство : DiC Enterprises
Продолжительность : 01:16:09
Перевод : Профессиональный (многоголосый, закадровый)
Файл
Формат видео : AVI
Качество : VHSRip-AVC

Видео : H.264, 720x552 (4:3), 25,0 fps, ~768 kbps avg, 0.077 bit/pixel
Звук : AC3, 48.0 KHz, 2 ch, ~224 Kbps
Субтитры : Нет






General
Complete name : E:/Siegfried & Roy.avi
Format : AVI
Format/Info : Audio Video Interleave
File size : 546 MiB
Duration : 1h 16mn
Overall bit rate : 1 002 Kbps
Writing application : VirtualDubMod 1.5.10.2 (build 2540/release)
Writing library : VirtualDubMod build 2540/release

Video #0
ID : 0
Format : AVC
Format/Info : Advanced Video Codec
Format profile : High@L5.1
Format settings, CABAC : Yes
Format settings, ReFrames : 3 frames
Codec ID : h264
Duration : 1h 16mn
Bit rate : 768 Kbps
Width : 720 pixels
Height : 552 pixels
Display aspect ratio : 4:3
Frame rate : 25.000 fps
Color space : YUV
Chroma subsampling : 4:2:0
Bit depth : 8 bits
Scan type : Progressive
Bits/(Pixel*Frame) : 0.077
Stream size : 418 MiB (77%)
Writing library : x264 core 58 svn-736
Encoding settings : cabac=1 / ref=3 / deblock=1:-2:-1 / analyse=0x3:0x133 / me=umh / subme=7 / brdo=1 / mixed_ref=1 / me_range=16 / chroma_me=1 / trellis=2 / 8x8dct=1 / cqm=0 / deadzone=21,11 / chroma_qp_offset=0 / threads=4 / nr=0 / decimate=0 / mbaff=0 / bframes=3 / b_pyramid=0 / b_adapt=1 / b_bias=0 / direct=3 / wpredb=1 / bime=1 / keyint=250 / keyint_min=25 / scenecut=40(pre) / rc=2pass / bitrate=768 / ratetol=1.0 / rceq='blurCplx^(1-qComp)' / qcomp=0.60 / qpmin=10 / qpmax=51 / qpstep=4 / cplxblur=20.0 / qblur=0.5 / ip_ratio=1.40 / pb_ratio=1.30

Audio #1
ID : 1
Format : AC-3
Format/Info : Audio Coding 3
Mode extension : CM (complete main)
Codec ID : 2000
Duration : 1h 16mn
Bit rate mode : Constant
Bit rate : 224 Kbps
Channel(s) : 2 channels
Channel positions : Front: L R
Sampling rate : 48.0 KHz
Bit depth : 16 bits
Compression mode : Lossy
Stream size : 122 MiB (22%)
Alignment : Split accross interleaves
Interleave, duration : 40 ms (1.00 video frame)
Interleave, preload duration : 500 ms







   Похожие торренты   Торрент   Размер 
В этой теме нет новых непрочитанных сообщений. Нибелунги: Зигфрид / Die Nibelungen, Teil 1 - Siegfried (1966) BDRip 720p

1 | 4

4.37 ГБ

В этой теме нет новых непрочитанных сообщений. Хи-Мен и Властелины Вселенной / He-Man and the Masters of the Universe (1983) VHSRip

6 | 4

6.61 ГБ

В этой теме нет новых непрочитанных сообщений. Сектор Газа - Концерт в Москве (к/т Волга) (13.09.1996) (1996) VHSRip

0 | 223

4.01 ГБ

В этой теме нет новых непрочитанных сообщений. Формула 1. Сезон 1996. Все этапы (1996) VHSRip

7 | 16

21.35 ГБ

В этой теме нет новых непрочитанных сообщений. Миссия невыполнима / Mission: Impossible (1996) HDRip | Гаврилов

449 | 82

1.46 ГБ

В этой теме нет новых непрочитанных сообщений. Миссия невыполнима / Mission: Impossible (1996) HDRip от CoNSoLeR | PSP

50 | 8

509.65 МБ

В этой теме нет новых непрочитанных сообщений. Миссия невыполнима / Mission: Impossible (1996) BDRip-AVC от HELLYWOOD

172 | 16

2.18 ГБ




Вы не можете начинать темы
Вы не можете отвечать на сообщения
Вы не можете редактировать свои сообщения
Вы не можете удалять свои сообщения
Вы не можете добавлять вложения

Перейти:  
Для Мосгорсуда, Роскомнадзора и рекламодателей: mosgorsud-torrent[собачка]yandex.ru
 Вход
ppkBB3cker v.2 © 2008-2014 @ PPK
[ Time : 0.520s | 14 Queries | GZIP : Off ]

Торрент трекер RUTOR.IN, Не можете зайти на rutor.org? Какой новый адрес рутор? Какое зеркало рутор? Не работает rutor.org и зеркала? Тогда наш торрент специально для вас. Rutor.in неофициальное зеркало rutor. В случае если у Вас заблокирован rutor или вдруг Вы не можете на него зайти, то Вы без труда сможете скачать бесплатно и без рекламы последние новинки кино, игр, сериалов и прочего у нас, на Rutor.in. Не нужно использовать прокси, чтобы зайти на рутор, достаточно воспользоваться нашим ресурсом. Все новые фильмы, игры, сериалы, книги и музыка за 2013 и 2014 годы через торрент бесплатно. Скачивайте фильмы в хорошем качестве, игры для пк, xbox, playstation без регистрации. У нас вы найдете новые Зарубежные сериалы и Русские сериалы 2013, 2014, 2015 годов. Оставайтесь с нами, качайте любимые фильмы, игры, сериалы, книги и музыку.