img image001 image001 image001 image001 image001 image001 image001 image001 image001 image001 image001 image001 image001 image001 image001

Planets Sun Sun Sun
Статистика раздачи
Автор: Снежана | Размер: 2.41 ГБ | Добавлен: 27 июл 2013
Раздают: 27    Качают: 7
Скачать торрент
Скачать торрент
Описание торрента

СообщениеДобавлено: 27 июл 2013 

«There is no such thing as an ordinary day to Phineas and Ferb.»[/align]


#77
Год выпуска: 2012 - 2013
Выпущено: США / «Уолт Дисней Компани СНГ»
Жанр: мультфильм, комедия, семейный
Продолжительность: 00:11:39 + 00:11:12 + 00:10:27 + 00:11:41 + 00:11:16 + 00:11:07 + 00:11:17 + 00:11:28 + 00:21:39 + 00:21:39 + 00:11:37 + 00:11:52

Перевод: Профессиональный (дублированный)
Оригинальная аудиодорожка: английский
Субтитры: русский

Режиссер: Роберт Хьюз / Robert Hughes, Дэн Повенмайр / Dan Povenmire

Роли озвучивали: Винсент Мартелла, Томас Сэнгстер, Эшли Тисдейл, Дэн Повенмайр, Кэролайн Ри, Элисон Стоунер, Митчел Муссо, Молик Панчоли, Ди Брэдли Бейкер, Джефф «Свомпи» Марш...

Роли дублировали: Геннадий Грачёв, Александр Горчилин, Дмитрий Череватенко, Олег Харитонов, Валерия Забегаева...

Описание: Насколько хорошо вы знаете своего домашнего питомца... или животных вообще? За милым и безобидным внешним видом может скрываться умелый борец с преступностью в коричневой фетровой шляпе с удостоверением сверхсекретного агента и лицензией на страх в глазах врагов! Познакомьтесь с отважными агентами из ОБКА (Организация Без Крутой Аббревиатуры).
Перри Утконос, также известный как агент Пи, и его напарники объединяются, чтобы обезвредить коварного доктора Фуфелшмерца и его подлых приспешников. Эти бесстрашные агенты с мехом и перьями не ведают компромиссов, когда речь заходит о борьбе со злом. Вас ждет более двух часов фантастических приключений с милыми и опасными зверушками. Также здесь вы найдете остросюжетную ленту "А где Перри?" в двух частях. Это веселое и головокружительное приключение не даст вам заснуть.






Качество видео: DVDRip-AVC [DVD9 R5]
Формат видео: MKV

Видео: 720x576@1024x576 (16:9), H264 1812 Кбит/сек 25,000 fps / Бит/(Пиксели*Кадры): 0.175
Аудио 1: Dolby Digital Audio Russian 192 kbps 2.0 / 48 kHz
Аудио 2: Dolby Digital Audio English 192 kbps 2.0 / 48 kHz
Формат субтитров: SoftSub (srt)

Примечание: Абсолютно непонятно, как серии, представленные здесь ложатся по сезонам. Нашел несколько в последних сезонах, и это явно новые серии. Кинопоиск и IMDB - каждый поет в свою дуду. Поэтому внизу под спойлером я постарался наиболее точно (по видео и аудио) обозначить название приведенных здесь серий. Некоторые серии нигде и никак не описаны. Производитель диска - «Уолт Дисней Компани СНГ» пожелал в этот диск положить именно эти серии, не удосужившись на обложке написать их названия. Если у кого-то будут уточнения к этому релизу, буду премного благодарен.
Раздача от:
01. Journey to the Center of Candace - Путешествие внутрь Кэндес.
02. Traffic Cam Caper - Похищение компакт диска.
03. Vanessassary Roughness - Ванессенсивный шоппинг.
04. Isabella and the Temple of Sup - Изабелла и Храм древесного сока.
05. Cheer up Candace - Выше нос Кэндис.
06. Robot Rodeo - Робото-родео.
07. Lotsa Latkes - Чипсы-гремлины.
08. Agent Doof - Агент Эф.
09. Where's Perry? - А где Перри?
10. Where's Perry? (p.2) - А где Перри? (ч.2)
11. What'd Miss? - Что я пропустил?
12. Bowl-R-AMA Drama - Драма в кегельбане

Внимание! Раздача ведётся путём добавления новых серий; при каждом добавлении создаётся новый торрент-файл. Чтобы начать докачку новой серии, пользователям необходимо сделать следующее:
(1) остановить скачивание;
(2) удалить старый торрент-файл у себя из клиента (старые серии удалять не надо);
(3) скачать новый торрент-файл и запустить его у себя в клиенте вместо старого, при этом указать клиенту путь в старую папку куда и должно происходить скачивание новых серий.
Ваш клиент при этом должен произвести хеширование (проверку) старой папки (если он не производит проверку сам – помогите ему сделать это), и будет докачивать только те серии которых у вас ещё нет. Старые серии при этом не удаляются, а продолжают раздаваться!
Если вы уже удалили старые серии, то предотвратить повторную закачку старых серий можно, отжав галочку в соответствующих местах при запуске нового торрент-файла. Желательно старые серии не удалять как можно дольше, чтобы релизёр не столько продолжал раздавать старые серии, а смог сконцентрироваться на новых.

Общее
Полное имя : Fines.i.Ferb.Agenty.zhivotnye.2013.D.DVDRip-AVC_[Youtracker]_by_avproh�1.mkv
Формат : Matroska
Версия формата : Version 4 / Version 2
Размер файла : 183 Мбайт
Продолжительность : 11 м.
Общий поток : 2198 Кбит/сек
Дата кодирования : UTC 2013-03-29 03:47:09
Программа кодирования : mkvmerge v6.1.0 ('Old Devil') built on Mar 2 2013 14:32:37
Библиотека кодирования : libebml v1.3.0 + libmatroska v1.4.0

Видео
Идентификатор : 1
Формат : AVC
Формат/Информация : Advanced Video Codec
Профиль формата : High@L4.1
Параметр CABAC формата : Да
Параметр ReFrames формата : 11 кадров
Идентификатор кодека : V_MPEG4/ISO/AVC
Продолжительность : 11 м.
Битрейт : 1812 Кбит/сек
Ширина : 720 пикселей
Высота : 576 пикселей
Соотношение сторон : 16:9
Режим частоты кадров : Постоянный
Частота кадров : 25,000 кадров/сек
Стандарт вещания : PAL
Цветовое пространство : YUV
Субдискретизация насыщенности : 4:2:0
Битовая глубина : 8 бит
Тип развёртки : Прогрессивная
Бит/(Пиксели*Кадры) : 0.175
Размер потока : 148 Мбайт (81%)
Библиотека кодирования : x264 core 119 r2106 07efeb4
Настройки программы : cabac=1 / ref=11 / deblock=1:-2:-1 / analyse=0x3:0x113 / me=umh / subme=9 / psy=1 / psy_rd=1.00:0.20 / mixed_ref=1 / me_range=32 / chroma_me=1 / trellis=1 / 8x8dct=1 / cqm=0 / deadzone=21,11 / fast_pskip=0 / chroma_qp_offset=-3 / threads=9 / sliced_threads=0 / nr=0 / decimate=0 / interlaced=0 / bluray_compat=0 / constrained_intra=0 / bframes=8 / b_pyramid=2 / b_adapt=2 / b_bias=0 / direct=3 / weightb=1 / open_gop=0 / weightp=2 / keyint=250 / keyint_min=25 / scenecut=40 / intra_refresh=0 / rc_lookahead=60 / rc=2pass / mbtree=1 / bitrate=1812 / ratetol=1.0 / qcomp=0.60 / qpmin=0 / qpmax=69 / qpstep=4 / cplxblur=20.0 / qblur=0.5 / ip_ratio=1.40 / aq=1:1.00
Язык : English
Default : Да
Forced : Нет

Аудио #1
Идентификатор : 2
Формат : AC-3
Формат/Информация : Audio Coding 3
Профиль формата : Dolby Digital
Расширение режима : CM (complete main)
Параметр Endianness формата : Big
Идентификатор кодека : A_AC3
Продолжительность : 11 м.
Вид битрейта : Постоянный
Битрейт : 192 Кбит/сек
Каналы : 2 канала
Расположение каналов : Front: L R
Частота : 48,0 КГц
Битовая глубина : 16 бит
Метод сжатия : С потерями
Размер потока : 16,0 Мбайт (9%)
Язык : Russian
Default : Да
Forced : Нет

Аудио #2
Идентификатор : 3
Формат : AC-3
Формат/Информация : Audio Coding 3
Профиль формата : Dolby Digital
Расширение режима : CM (complete main)
Параметр Endianness формата : Big
Идентификатор кодека : A_AC3
Продолжительность : 11 м.
Вид битрейта : Постоянный
Битрейт : 192 Кбит/сек
Каналы : 2 канала
Расположение каналов : Front: L R
Частота : 48,0 КГц
Битовая глубина : 16 бит
Метод сжатия : С потерями
Размер потока : 16,0 Мбайт (9%)
Язык : English
Default : Нет
Forced : Нет

Текст
Идентификатор : 4
Формат : UTF-8
Идентификатор кодека : S_TEXT/UTF8
Идентификатор кодека/Информация : UTF-8 Plain Text
Язык : Russian
Default : Нет
Forced : Нет





   Похожие торренты   Торрент   Размер 
В этой теме нет новых непрочитанных сообщений. Финес и Ферб: Зверушкины агенты / Phineas and Ferb: Animal agents [01-12 из ?] (2012-2013) DVDRip от Youtracker | D | лицензия

34 | 3

2.41 ГБ

В этой теме нет новых непрочитанных сообщений. Финес и Ферб / Phineas and Ferb [S02] [11, 16, 26, 27, 39 из 39] (2009-2010) DVD9 R5 от Youtracker | лицензия

7 | 3

6.65 ГБ

В этой теме нет новых непрочитанных сообщений. Финес и Ферб / Phineas and Ferb [01-04x01-44 из ?] (2008-2014) DVDRip от New-Team | лицензия

101 | 34

9.4 ГБ

В этой теме нет новых непрочитанных сообщений. Финес и Ферб / Phineas and Ferb [S01-04] (2008-2014) 5xDVD9 от New-Team | D | Лицензия

65 | 88

31.77 ГБ

В этой теме нет новых непрочитанных сообщений. Финес и Ферб / Phineas and Ferb [S01-04] (2007-2012) WEB-DL 720p l 1080p l D

87 | 65

31.24 ГБ

В этой теме нет новых непрочитанных сообщений. Финес и Ферб / Phineas and Ferb [S01-04, 01-101] (2007-2013) WEB-DLRip от Fartuna

39 | 51

30.42 ГБ

В этой теме нет новых непрочитанных сообщений. Финес и Ферб / Phineas and Ferb [S01] (2007) WEB-DL 720p

51 | 3

3.82 ГБ




Вы не можете начинать темы
Вы не можете отвечать на сообщения
Вы не можете редактировать свои сообщения
Вы не можете удалять свои сообщения
Вы не можете добавлять вложения

Перейти:  
Для Мосгорсуда, Роскомнадзора и рекламодателей: mosgorsud-torrent[собачка]yandex.ru
 Вход
ppkBB3cker v.2 © 2008-2014 @ PPK
[ Time : 0.044s | 15 Queries | GZIP : Off ]

Торрент трекер RUTOR.IN, Не можете зайти на rutor.org? Какой новый адрес рутор? Какое зеркало рутор? Не работает rutor.org и зеркала? Тогда наш торрент специально для вас. Rutor.in неофициальное зеркало rutor. В случае если у Вас заблокирован rutor или вдруг Вы не можете на него зайти, то Вы без труда сможете скачать бесплатно и без рекламы последние новинки кино, игр, сериалов и прочего у нас, на Rutor.in. Не нужно использовать прокси, чтобы зайти на рутор, достаточно воспользоваться нашим ресурсом. Все новые фильмы, игры, сериалы, книги и музыка за 2013 и 2014 годы через торрент бесплатно. Скачивайте фильмы в хорошем качестве, игры для пк, xbox, playstation без регистрации. У нас вы найдете новые Зарубежные сериалы и Русские сериалы 2013, 2014, 2015 годов. Оставайтесь с нами, качайте любимые фильмы, игры, сериалы, книги и музыку.
cron