img image001 image001 image001 image001 image001 image001 image001 image001 image001 image001 image001 image001 image001 image001 image001

Planets Sun Sun Sun
Статистика раздачи
Автор: Снежана | Размер: 4.36 ГБ | Добавлен: 27 июл 2013
Раздают: 0    Качают: 2
Скачать торрент
Скачать торрент
Описание торрента

СообщениеДобавлено: 27 июл 2013 

#77
Название: Побег с планеты Земля
Оригинальное название: Escape from Planet Earth
Год выпуска: 2013
Страна: США, Канада
Слоган: «Земные секреты раскрыты чужими!»
Жанр: мультфильм, фантастика, комедия, приключения, семейный
Продолжительность: 01:25:43
Перевод: Профессиональный (полное дублирование)

Режиссер: Кэллан Брукнер
Сценарий: Боб Барлен, Кэллан Брукнер, Тони Лич, Кори Эдвардс
Продюсер: Люк Кэрролл, Катрин Уиндер, Филлип Глассер, Джинко Готох, Тони Лич
Оператор: Мэттью А. Уорд
Композитор: Аарон Зигман
В ролях: Брендан Фрейзер, Роб Кордри, Рики Джервэйс, Джонатан Морган Хейт, Джессика Альба, София Вергара, Пол Шеер, Джейсон Симпсон, Сара Джессика Паркер, Даг Абрахамс, Джейсон Бенсон, Тревор Дивэлл

Бюджет: $40 000 000
Сборы в мире: $56 433 131

Описание: На планете Бааб, в самом центре Вселенной, два брата делают всё возможное, чтобы защитить свою галактику. Они - полные противоположности. Если девиз Гарри - «сначала подумай, потом сделай», то отважный Скорч живет по закону «сила есть - ума не надо», что не мешает им слаженно работать. Но однажды они получают сигнал S.O.S. с опасной планеты...под названием Земля. Скорч, сломя голову, бросается на помощь, и, разумеется, влипает в неприятности. Только Гарри может вытащить его из «Зоны 51». Братья откроют множество головокружительных тайн, но смогут ли они сбежать с самой опасной планеты во Вселенной?


MPAA:
Релиз:

Качество: DVD5 (сжатый)
Формат: DVD Video
Видео: MPEG2; PAL 16:9 (720x576)
Аудио: Dolby AC3, 6 ch, 448 Kbps Russian
Субтитры: нет


Дополнительная информация :
Исходник : DVD9 (5.98 Гб) [лицензия, PAL 16:9]
Убрано : реклама, заставки, предупреждения
Сжатие фильма : 26.4 % сжатия (без учета ручного перераспределения битрейта, за счет большего сжатия конечных титров)

DVDRemakePro
Rebuilder и CCE (Cinema Craft Encoder), 5 проходов
Работоспособность проверена на софтовом плеере Windows Media и бытовом LG
Title: Pobeg.s.planety.Zemlja_2013_DVD5.[R.G.Daredevil]
Size: 4.36 Gb ( 4 571 726,00 KBytes ) - DVD-5
Enabled regions: 1, 2, 3, 4, 5, 6, 7, 8

VTS_01 :
Play Length: 01:25:43
Video: PAL 16:9 (720x576) VBR, Auto Letterboxed
Audio:
Russian (Dolby AC3, 6 ch)
Формат : MPEG-PS
Размер файла : 1024 Мбайт
Продолжительность : 19 м.
Режим общего битрейта : Переменный
Общий поток : 7521 Кбит/сек

Видео
Идентификатор : 224 (0xE0)
Формат : MPEG Video
Версия формата : Version 2
Профиль формата : Main@Main
Параметр BVOP формата : Да
Параметр матрицы формата : Выборочная
Продолжительность : 19 м.
Вид битрейта : Переменный
Битрейт : 6923 Кбит/сек
Ширина : 720 пикселей
Высота : 576 пикселей
Соотношение сторон : 2,35:1
Частота кадров : 25,000 кадров/сек
Стандарт вещания : PAL
Цветовое пространство : YUV
Субдискретизация насыщенности : 4:2:0
Битовая глубина : 8 бит
Метод сжатия : С потерями
Бит/(Пиксели*Кадры) : 0.668
Размер потока : 943 Мбайт (92%)

Аудио
Идентификатор : 189 (0xBD)-128 (0x80)
Формат : AC-3
Формат/Информация : Audio Coding 3
Расширение режима : CM (complete main)
Режим смешивания : DVD-Video
Продолжительность : 19 м.
Вид битрейта : Постоянный
Битрейт : 448 Кбит/сек
Каналы : 6 каналов
Расположение каналов : Front: L C R, Side: L R, LFE
Частота : 48,0 КГц
Битовая глубина : 16 бит
Метод сжатия : С потерями
Задержка видео : 336 мс.
Размер потока : 61,0 Мбайт (6%)

Меню
Всякий раз, когда две фамилии героев в фильме произносят подряд, они совпадают с именами известных режиссеров, например: «Питер! Джексон! Задержать его!» или «Джеймс! Кэмерон! Не дайте ему уйти!».














   Похожие торренты   Торрент   Размер 
В этой теме нет новых непрочитанных сообщений. Побег с планеты Земля / Escape from Planet Earth (2013) HDRip | Лицензия

29 | 2

697.27 МБ

В этой теме нет новых непрочитанных сообщений. Побег с планеты Земля / Escape from Planet Earth (2013) DVD9 | Лицензия

1 | 3

5.98 ГБ

В этой теме нет новых непрочитанных сообщений. Побег с планеты Земля / Escape from Planet Earth (2013) HDRip | Лицензия

87 | 7

1.37 ГБ

В этой теме нет новых непрочитанных сообщений. Побег с планеты Земля / Escape from Planet Earth (2013) BDRip-AVC от leonardo 59 | Лицензия

43 | 4

1.86 ГБ

В этой теме нет новых непрочитанных сообщений. Побег с планеты Земля / Escape from Planet Earth (2013) HDRip-AVC от Stalker oK | D | Лицензия

31 | 9

742.85 МБ

В этой теме нет новых непрочитанных сообщений. Побег с планеты Земля / Escape from Planet Earth (2013) BDRip от HQCLUB | Лицензия

792 | 48

1.45 ГБ

В этой теме нет новых непрочитанных сообщений. Побег с планеты Земля / Escape from Planet Earth (2013) DVDRip-AVC от Vaippp | Лицензия

104 | 5

1.46 ГБ




Вы не можете начинать темы
Вы не можете отвечать на сообщения
Вы не можете редактировать свои сообщения
Вы не можете удалять свои сообщения
Вы не можете добавлять вложения

Перейти:  
Для Мосгорсуда, Роскомнадзора и рекламодателей: mosgorsud-torrent[собачка]yandex.ru
 Вход
ppkBB3cker v.2 © 2008-2014 @ PPK
[ Time : 0.324s | 14 Queries | GZIP : Off ]

Торрент трекер RUTOR.IN, Не можете зайти на rutor.org? Какой новый адрес рутор? Какое зеркало рутор? Не работает rutor.org и зеркала? Тогда наш торрент специально для вас. Rutor.in неофициальное зеркало rutor. В случае если у Вас заблокирован rutor или вдруг Вы не можете на него зайти, то Вы без труда сможете скачать бесплатно и без рекламы последние новинки кино, игр, сериалов и прочего у нас, на Rutor.in. Не нужно использовать прокси, чтобы зайти на рутор, достаточно воспользоваться нашим ресурсом. Все новые фильмы, игры, сериалы, книги и музыка за 2013 и 2014 годы через торрент бесплатно. Скачивайте фильмы в хорошем качестве, игры для пк, xbox, playstation без регистрации. У нас вы найдете новые Зарубежные сериалы и Русские сериалы 2013, 2014, 2015 годов. Оставайтесь с нами, качайте любимые фильмы, игры, сериалы, книги и музыку.