img image001 image001 image001 image001 image001 image001 image001 image001 image001 image001 image001 image001 image001 image001 image001

Planets Sun Sun Sun
Статистика раздачи
Автор: Снежана | Размер: 3.2 ГБ | Добавлен: 27 июл 2013
Раздают: 7    Качают: 2
Скачать торрент
Скачать торрент
Описание торрента

СообщениеДобавлено: 27 июл 2013 

#77

Информация о фильме
Название: Побег с планеты Земля
Оригинальное название: Escape from Planet Earth
Год выпуска: 2013
Жанр: Мультфильм, фантастика, комедия, приключения, семейный
Выпущено: США, Канада, Blue Yonder Films, Jon Shestack Productions, Protocol Pictures, Rainmaker Entertainment, Mainframe Entertainment
Режиссер: Каллэн Брункер
В ролях: Джессика Альба, Брендан Фрейзер, Сара Джессика Паркер, Джейн Линч, Кэйтлин Олсен, Джеймс Гандольфини, Роб Кордри, Пол Рубенс, Крэйг Робинсон, Джошуа Раш, Грегг Бинкли, Джонатан Морган Хейт, Люси Девенпорт, Ник Барнс

О фильме: На планете Бааб, в самом центре Вселенной, два брата делают всё возможное, чтобы защитить свою галактику. Они — полные противоположности. Если девиз Гарри — «сначала подумай, потом сделай», то отважный Скорч живет по закону «сила есть — ума не надо», что не мешает им слаженно работать. Но однажды они получают сигнал S.O.S. с опасной планеты…под названием Земля. Скорч, сломя голову, бросается на помощь, и, разумеется, влипает в неприятности. Только Гарри может вытащить его из «Зоны 51». Братья откроют множество головокружительных тайн, но смогут ли они сбежать с самой опасной планеты во Вселенной?



Файл
Качество: BDRip (720p)
Видео: MPEG-4 AVC, 3515 Кбит/с, 1280x550
Аудио: DTS, 6 ch, 1510 Кбит/с
Размер: 3.2 ГБ
Продолжительность: 01:29:15
Перевод: Дублированный [лицензия]

Семпл
General
Unique ID : 199753881060111381963300462481706543040 (0x964732B6F3AB90EC921774A372BF67C0)
Complete name : Escape.from.Planet.Earth.2013.D.BDRip.720p.IRONCLUB.mkv
Format : Matroska
Format version : Version 2
File size : 3.20 GiB
Duration : 1h 29mn
Overall bit rate : 5 127 Kbps
Movie name : IRONCLUB
Encoded date : UTC 2013-03-30 22:31:07
Writing application : mkvmerge v5.2.0 ('I can't explain') built on Dec 18 2011 18:12:03
Writing library : libebml v1.2.3 + libmatroska v1.3.0

Video
ID : 1
Format : AVC
Format/Info : Advanced Video Codec
Format profile : High@L4.1
Format settings, CABAC : Yes
Format settings, ReFrames : 11 frames
Codec ID : V_MPEG4/ISO/AVC
Duration : 1h 29mn
Bit rate : 3 515 Kbps
Width : 1 280 pixels
Height : 550 pixels
Display aspect ratio : 2.35:1
Frame rate : 23.976 fps
Color space : YUV
Chroma subsampling : 4:2:0
Bit depth : 8 bits
Scan type : Progressive
Bits/(Pixel*Frame) : 0.208
Stream size : 2.19 GiB (69%)
Title : Escape from Planet Earth 2013 720p BluRay DTS x264-IRONCLUB
Writing library : x264 core 130 r2273kMod b3065e6
Encoding settings : cabac=1 / ref=11 / deblock=1:-1:-1 / analyse=0x3:0x113 / me=umh / subme=11 / psy=1 / fade_compensate=0.00 / psy_rd=0.65:0.00 / mixed_ref=1 / me_range=24 / chroma_me=1 / trellis=2 / 8x8dct=1 / cqm=0 / deadzone=21,11 / fast_pskip=0 / chroma_qp_offset=-2 / threads=12 / lookahead_threads=2 / sliced_threads=0 / nr=0 / decimate=1 / interlaced=0 / bluray_compat=0 / constrained_intra=0 / bframes=7 / b_pyramid=2 / b_adapt=2 / b_bias=0 / direct=3 / weightb=1 / open_gop=0 / weightp=2 / keyint=250 / keyint_min=23 / scenecut=40 / intra_refresh=0 / rc_lookahead=60 / rc=crf / mbtree=0 / crf=16.5000 / qcomp=0.65 / qpmin=0 / qpmax=69 / qpstep=4 / vbv_maxrate=50000 / vbv_bufsize=62500 / crf_max=0.0 / nal_hrd=none / ip_ratio=1.30 / pb_ratio=1.20 / aq=2:0.60
Language : English
Default : Yes
Forced : Yes
Matrix coefficients : BT.709-5, BT.1361, IEC 61966-2-4 709, SMPTE RP177

Audio
ID : 2
Format : DTS
Format/Info : Digital Theater Systems
Codec ID : A_DTS
Duration : 1h 29mn
Bit rate mode : Constant
Bit rate : 1 510 Kbps
Channel(s) : 6 channels
Channel positions : Front: L C R, Side: L R, LFE
Sampling rate : 48.0 KHz
Bit depth : 16 bits
Compression mode : Lossy
Stream size : 964 MiB (29%)
Title : DTS 5.1 @ 1536 kbps - Dub, BD RUS
Language : Russian
Default : Yes
Forced : Yes

Menu
00:00:00.000 : en:
00:08:21.584 : en:
00:15:30.888 : en:
00:25:19.809 : en:
00:32:23.274 : en:
00:40:41.522 : en:
00:49:52.572 : en:
00:57:21.980 : en:
01:06:59.014 : en:
01:13:39.164 : en:
01:21:54.242 : en:






Релиз от:



   Похожие торренты   Торрент   Размер 
В этой теме нет новых непрочитанных сообщений. Побег с планеты Земля / Escape from Planet Earth (2013) BDRip 720p от leonardo 59 | Лицензия

62 | 2

3.77 ГБ

В этой теме нет новых непрочитанных сообщений. Побег с планеты Земля / Escape from Planet Earth (2013) BDRip 720p от HELLYWOOD | Лицензия

89 | 4

4.37 ГБ

В этой теме нет новых непрочитанных сообщений. Побег с планеты Земля / Escape from Planet Earth (2013) BDRip 720p от HQ-ViDEO | US-transfer | Лицензия

36 | 2

4.2 ГБ

В этой теме нет новых непрочитанных сообщений. Побег с планеты Земля / Escape from Planet Earth (2013) BDRip 1080p

70 | 7

7.64 ГБ

В этой теме нет новых непрочитанных сообщений. Побег с планеты Земля / Escape from Planet Earth (2013) BDRip 1080p

58 | 7

4.37 ГБ

В этой теме нет новых непрочитанных сообщений. Побег с планеты Земля / Escape from Planet Earth (2013) BDRip-AVC | iPad

6 | 2

1.6 ГБ

В этой теме нет новых непрочитанных сообщений. Побег с планеты Земля / Escape from Planet Earth (2013) BDRip-AVC от leonardo 59 | Лицензия

43 | 4

1.86 ГБ




Вы не можете начинать темы
Вы не можете отвечать на сообщения
Вы не можете редактировать свои сообщения
Вы не можете удалять свои сообщения
Вы не можете добавлять вложения

Перейти:  
Для Мосгорсуда, Роскомнадзора и рекламодателей: mosgorsud-torrent[собачка]yandex.ru
 Вход
ppkBB3cker v.2 © 2008-2014 @ PPK
[ Time : 0.033s | 15 Queries | GZIP : On ]

Торрент трекер RUTOR.IN, Не можете зайти на rutor.org? Какой новый адрес рутор? Какое зеркало рутор? Не работает rutor.org и зеркала? Тогда наш торрент специально для вас. Rutor.in неофициальное зеркало rutor. В случае если у Вас заблокирован rutor или вдруг Вы не можете на него зайти, то Вы без труда сможете скачать бесплатно и без рекламы последние новинки кино, игр, сериалов и прочего у нас, на Rutor.in. Не нужно использовать прокси, чтобы зайти на рутор, достаточно воспользоваться нашим ресурсом. Все новые фильмы, игры, сериалы, книги и музыка за 2013 и 2014 годы через торрент бесплатно. Скачивайте фильмы в хорошем качестве, игры для пк, xbox, playstation без регистрации. У нас вы найдете новые Зарубежные сериалы и Русские сериалы 2013, 2014, 2015 годов. Оставайтесь с нами, качайте любимые фильмы, игры, сериалы, книги и музыку.