img image001 image001 image001 image001 image001 image001 image001 image001 image001 image001 image001 image001 image001 image001 image001

Planets Sun Sun Sun
Статистика раздачи
Автор: Снежана | Размер: 738.94 МБ | Добавлен: 27 июл 2013
Раздают: 123    Качают: 7
Скачать торрент
Скачать торрент
Описание торрента

СообщениеДобавлено: 27 июл 2013 

#77
Страна: СССР
Производство: Союзмультфильм
Жанр: мультфильм, короткометражка
Год выпуска: 1963-1985
Продолжительность: 00:20:13, 00:09:27, 00:09:24, 00:09:55

Перевод: не требуется
Оригинальная аудиодорожка: русский
Cубтитры: нет

Режиссер: Александра Снежко-Блоцкая, Юрий Прытков, Геннадий Сокольский, Эдуард Назаров

Описание:
Баранкин, будь человеком! По одноименной повести Валерия Медведева. Ленивый и непослушный ученик Баранкин превращается в крохотного человечка. Его ждет много опасностей и приключений в мире насекомых...
Дядя Миша Медведь пытается сделать запасы на зиму: собрать морковь, грибы, орехи, наловить рыбы, украсть курочку. Но во всём терпит неудачу...
Ивашка из Дворца пионеров Приключения современного мальчика в стране сказок...
Про Сидорова Вову В основу мультфильма положено сатирическое стихотворение Э. Успенского, высмеивающее родителей, которые в своей слепой любви доходят до абсурда и тем самым калечат ребенка, воспитывая его неприспособленным к нормальной трудовой жизни, службе в армии...






Исходник: DVD5 R5
Качество: DVDRip
Формат: AVI

Видео: 688x528 (4:3), 25 fps, XviD ~ 1916 kbps avg, 0.211 bit/pixel
Аудио: 48 kHz, AC3, 2 ch, 192.00 kbps

Раздача от:
Общее
Полное имя : Barankin,bud'.chelovekom!1963.DVDRip_[Youtracker]_by_AVP Studio.avi
Формат : AVI
Формат/Информация : Audio Video Interleave
Размер файла : 306 Мбайт
Продолжительность : 20 м.
Общий поток : 2118 Кбит/сек
Программа кодирования : VirtualDubMod 1.5.10.3 | www.virtualdub-fr.org || (build 2550/release)
Библиотека кодирования : VirtualDubMod build 2550/release

Видео
Идентификатор : 0
Формат : MPEG-4 Visual
Профиль формата : Advanced Simple@L5
Параметр BVOP формата : 1
Параметр QPel формата : Нет
Параметр GMC формата : Без точки перехода
Параметр матрицы формата : Выборочная
Идентификатор кодека : XVID
Идентификатор кодека/Подсказка : XviD
Продолжительность : 20 м.
Битрейт : 1916 Кбит/сек
Ширина : 688 пикселей
Высота : 528 пикселей
Соотношение сторон : 4:3
Частота кадров : 25,000 кадров/сек
Цветовое пространство : YUV
Субдискретизация насыщенности : 4:2:0
Битовая глубина : 8 бит
Тип развёртки : Прогрессивная
Метод сжатия : С потерями
Бит/(Пиксели*Кадры) : 0.211
Размер потока : 277 Мбайт (90%)
Библиотека кодирования : XviD 65

Аудио
Идентификатор : 1
Формат : AC-3
Формат/Информация : Audio Coding 3
Расширение режима : CM (complete main)
Идентификатор кодека : 2000
Продолжительность : 20 м.
Вид битрейта : Постоянный
Битрейт : 192 Кбит/сек
Каналы : 2 канала
Расположение каналов : Front: L R
Частота : 48,0 КГц
Битовая глубина : 16 бит
Метод сжатия : С потерями
Размер потока : 27,8 Мбайт (9%)
Выравнивание : Разделение по промежуткам
Продолжительность промежутка : 40 мс. (1,00 видеокадр)
Время предзагрузки промежутка : 500 мс





   Похожие торренты   Торрент   Размер 
В этой теме нет новых непрочитанных сообщений. Баранкин, будь человеком! Дядя Миша. Ивашка из Дворца пионеров. Про Сидорова Вову. (1963-1985) DVDRip-AVC от Youtracker

73 | 11

744.46 МБ

В этой теме нет новых непрочитанных сообщений. Баранкин, будь человеком! (1963) DVDRip-AVC

15 | 0

224.1 МБ

В этой теме нет новых непрочитанных сообщений. Ивашка из дворца пионеров (1981) DVDRip

93 | 14

99.95 МБ

В этой теме нет новых непрочитанных сообщений. Баранкин, будь человеком! (1963) TVRip

14 | 3

273.31 МБ

В этой теме нет новых непрочитанных сообщений. Ивашка из дворца пионеров (1981) DVDRip от MediaClub | КПК

523 | 26

42.77 МБ

В этой теме нет новых непрочитанных сообщений. Баранкин, будь человеком! / Barankin, be a man! (1963) HDTVRip-AVC от SDIncorporation

6 | 0

311.76 МБ

В этой теме нет новых непрочитанных сообщений. Про Сидорова Вову (1985) DVDRip

208 | 6

297.24 МБ




Вы не можете начинать темы
Вы не можете отвечать на сообщения
Вы не можете редактировать свои сообщения
Вы не можете удалять свои сообщения
Вы не можете добавлять вложения

Перейти:  
Для Мосгорсуда, Роскомнадзора и рекламодателей: mosgorsud-torrent[собачка]yandex.ru
 Вход
ppkBB3cker v.2 © 2008-2014 @ PPK
[ Time : 0.054s | 15 Queries | GZIP : Off ]

cron