img image001 image001 image001 image001 image001 image001 image001 image001 image001 image001 image001 image001 image001 image001 image001

Planets Sun Sun Sun
Статистика раздачи
Автор: Снежана | Размер: 4.67 ГБ | Добавлен: 27 июл 2013
Раздают: 152    Качают: 11
Скачать торрент
Скачать торрент
Описание торрента

СообщениеДобавлено: 27 июл 2013 

Черепашки-ниндзя

TMNT

«Raising Shell In 2007»



#77
Год выпуска: 2007
Страны: Гонконг, США
Жанры: мультфильм, фантастика, фэнтези, боевик, комедия, приключения, семейный
Продолжительность: 01:26:51
Режиссер: Кевин Манро
Перевод: Дубляж + Оригинал

В ролях:
Нолан Норт, Джеймс Арнольд Тейлор, Митчел Уитфилд, Мики Келли, Мако, Сара Мишель Геллар, Крис Эванс, Патрик Стюарт, Чжан Цзыи, Лоренс Фишбёрн

Описание:
После поражения их старейшего врага Шредера, семья черепашек распалась. Кроме борьбы за единство семьи их сенсей Сплинтер обеспокоен еще и тем, что в Нью-Йорке происходит что-то странное. Техноиндустриалист Максимилиан Уинтерс готовит армию древних монстров, остановить которую сможет только суперкоманда бойцов ниндзя — Леонардо, Микеланджело, Донателло и Рафаэль! Вместе со своими прежними соратниками Эйприл О`Нил и Кейси Джонсом Черепашки снова в сражаются за свои жизни, им снова предстоит противостоять таинственному клану Фут, поставившему свои собственные способности ниндзя на службу интересам Уинтера.



Качество: BDRip 1080p
Формат: MKV
Видео кодек: H.264 (AVC)
Аудио кодек: AC3
Видео: 1920x800, 6420 Kbps, 23,976 fps
Звук: 48 kHz, AC3, 6c, 640 kbps Дубляж
Звук: 48 kHz, AC3, 6c, 640 kbps Оригинал
Субтитры: Русские, Английские



Общее
Формат : Matroska
Версия формата : Version 4 / Version 2
Размер файла : 4,67 Гбайт
Продолжительность : 1 ч. 26 м.
Общий поток : 7697 Кбит/сек
Дата кодирования : UTC 2013-03-29 15:48:51
Программа кодирования : mkvmerge v6.1.0 ('Old Devil') built on Mar 2 2013 14:32:37
Библиотека кодирования : libebml v1.3.0 + libmatroska v1.4.0
Attachment : Yes / Yes

Видео
Идентификатор : 1
Формат : AVC
Формат/Информация : Advanced Video Codec
Профиль формата : High@L4.1
Параметр CABAC формата : Да
Параметр ReFrames формата : 5 кадров
Идентификатор кодека : V_MPEG4/ISO/AVC
Продолжительность : 1 ч. 26 м.
Битрейт : 6420 Кбит/сек
Ширина : 1920 пикселей
Высота : 800 пикселей
Соотношение сторон : 2,40:1
Режим частоты кадров : Постоянный
Частота кадров : 23,976 кадра/сек
Цветовое пространство : YUV
Субдискретизация насыщенности : 4:2:0
Битовая глубина : 8 бит
Тип развёртки : Прогрессивная
Бит/(Пиксели*Кадры) : 0.174
Размер потока : 3,80 Гбайт (81%)
Заголовок : 1920x800 (2.400:1); 6414 Kbps; 23,976 fps; 0,174 bpp
Библиотека кодирования : x264 core 115 r1947 b5a8ad7
Настройки программы : cabac=1 / ref=5 / deblock=1:-3:-3 / analyse=0x3:0x133 / me=umh / subme=10 / psy=1 / psy_rd=1.00:0.00 / mixed_ref=1 / me_range=32 / chroma_me=1 / trellis=2 / 8x8dct=1 / cqm=0 / deadzone=21,11 / fast_pskip=0 / chroma_qp_offset=-2 / threads=6 / sliced_threads=0 / nr=0 / decimate=0 / interlaced=0 / bluray_compat=0 / constrained_intra=0 / bframes=6 / b_pyramid=2 / b_adapt=2 / b_bias=0 / direct=3 / weightb=1 / open_gop=0 / weightp=2 / keyint=250 / keyint_min=23 / scenecut=40 / intra_refresh=0 / rc_lookahead=60 / rc=2pass / mbtree=0 / bitrate=6420 / ratetol=1.0 / qcomp=0.60 / qpmin=0 / qpmax=69 / qpstep=4 / cplxblur=20.0 / qblur=0.5 / vbv_maxrate=50000 / vbv_bufsize=62500 / nal_hrd=none / ip_ratio=1.40 / pb_ratio=1.30 / aq=1:1.00
Язык : English
Default : Да
Forced : Нет
Основные цвета : BT.709
Характеристики трансфера : BT.709
Коэффициенты матрицы : BT.709

Аудио #1
Идентификатор : 2
Формат : AC-3
Формат/Информация : Audio Coding 3
Расширение режима : CM (complete main)
Параметр Endianness формата : Big
Идентификатор кодека : A_AC3
Продолжительность : 1 ч. 26 м.
Вид битрейта : Постоянный
Битрейт : 640 Кбит/сек
Каналы : 6 каналов
Расположение каналов : Front: L C R, Side: L R, LFE
Частота : 48,0 КГц
Битовая глубина : 16 бит
Метод сжатия : С потерями
Размер потока : 398 Мбайт (8%)
Заголовок : Дубляж
Язык : Russian
Default : Да
Forced : Нет

Аудио #2
Идентификатор : 3
Формат : AC-3
Формат/Информация : Audio Coding 3
Расширение режима : CM (complete main)
Параметр Endianness формата : Big
Идентификатор кодека : A_AC3
Продолжительность : 1 ч. 26 м.
Вид битрейта : Постоянный
Битрейт : 640 Кбит/сек
Каналы : 6 каналов
Расположение каналов : Front: L C R, Side: L R, LFE
Частота : 48,0 КГц
Битовая глубина : 16 бит
Метод сжатия : С потерями
Размер потока : 398 Мбайт (8%)
Заголовок : ENG
Язык : English
Default : Нет
Forced : Нет

Текст #1
Идентификатор : 4
Формат : UTF-8
Идентификатор кодека : S_TEXT/UTF8
Идентификатор кодека/Информация : UTF-8 Plain Text
Заголовок : RUS
Язык : Russian
Default : Нет
Forced : Нет

Текст #2
Идентификатор : 5
Формат : UTF-8
Идентификатор кодека : S_TEXT/UTF8
Идентификатор кодека/Информация : UTF-8 Plain Text
Заголовок : ENG
Язык : English
Default : Нет
Forced : Нет

Текст #3
Идентификатор : 6
Формат : UTF-8
Идентификатор кодека : S_TEXT/UTF8
Идентификатор кодека/Информация : UTF-8 Plain Text
Заголовок : Commentary by Kevin Munroe
Язык : Russian
Default : Нет
Forced : Нет

Текст #4
Идентификатор : 7
Формат : UTF-8
Идентификатор кодека : S_TEXT/UTF8
Идентификатор кодека/Информация : UTF-8 Plain Text
Заголовок : Commentary by Kevin Munroe
Язык : English
Default : Нет
Forced : Нет

Меню
00:00:00.000 : en:13 Monsters / 13 гигантов
00:04:44.117 : en:Ghost of the Jungle / Призрак джунглей
00:07:39.625 : en:Brotherly Update / Четверо братьев
00:12:47.266 : en:Glory Days Over / Былые времена позади
00:16:30.489 : en:Expectant Mr. Winters / Мистер Уинтерс ждет
00:21:30.622 : en:Asleep and Awake / Время просыпаться
00:25:41.706 : en:Construction Destruction / Черепашки снова в деле
00:32:36.621 : en:No Excuses / Без оправданий
00:36:39.864 : en:Monster Roundup / Почти все в сборе
00:38:19.130 : en:Witnesses / Свидетели
00:42:16.367 : en:Written All Over It / Его имя повсюду
00:47:26.677 : en:Little Fella / Малютка
00:51:46.770 : en:Done Taking Orders / Мне надоели приказы
00:55:46.843 : en:Battling Brothers / Поединок братьев
00:59:03.540 : en:Hiding Over / Хватит прятаться
01:02:15.231 : en:Our Time / Наше время
01:05:24.420 : en:Choosing Sides / Выбор
01:10:21.217 : en:Special Delivery / Особая доставка
01:14:33.802 : en:Creepy Exit / Эффектный уход
01:17:57.339 : en:What's Important / Самое главное
01:19:26.428 : en:End Credits / Финальные титры



   Похожие торренты   Торрент   Размер 
В этой теме нет новых непрочитанных сообщений. Черепашки-ниндзя / TMNT (2007) BDRip-AVC | D

175 | 28

746.28 МБ

В этой теме нет новых непрочитанных сообщений. Черепашки-ниндзя / TMNT (2007) BDRip от HQCLUB

2614 | 84

1.45 ГБ

В этой теме нет новых непрочитанных сообщений. Черепашки-ниндзя / TMNT (2007) BDRip от Youtracker

101 | 15

1.72 ГБ

В этой теме нет новых непрочитанных сообщений. Черепашки-ниндзя / TMNT (2007) BDRip-AVC от R.G. HD-Films | 60 fps

90 | 23

3.87 ГБ

В этой теме нет новых непрочитанных сообщений. Черепашки-ниндзя / TMNT (2007) BDRip 720p от HQCLUB

290 | 25

2.69 ГБ

В этой теме нет новых непрочитанных сообщений. Черепашки Ниндзя / TMNT (2007) BDRip от FRiENDS-Club

0 | 3

1.69 ГБ

В этой теме нет новых непрочитанных сообщений. Черепашки-ниндзя / TMNT (2007) BDRip 720p от Leonardo and Scarabey

213 | 21

2.37 ГБ




Вы не можете начинать темы
Вы не можете отвечать на сообщения
Вы не можете редактировать свои сообщения
Вы не можете удалять свои сообщения
Вы не можете добавлять вложения

Перейти:  
Для Мосгорсуда, Роскомнадзора и рекламодателей: mosgorsud-torrent[собачка]yandex.ru
 Вход
ppkBB3cker v.2 © 2008-2014 @ PPK
[ Time : 0.022s | 16 Queries | GZIP : Off ]

Торрент трекер RUTOR.IN, Не можете зайти на rutor.org? Какой новый адрес рутор? Какое зеркало рутор? Не работает rutor.org и зеркала? Тогда наш торрент специально для вас. Rutor.in неофициальное зеркало rutor. В случае если у Вас заблокирован rutor или вдруг Вы не можете на него зайти, то Вы без труда сможете скачать бесплатно и без рекламы последние новинки кино, игр, сериалов и прочего у нас, на Rutor.in. Не нужно использовать прокси, чтобы зайти на рутор, достаточно воспользоваться нашим ресурсом. Все новые фильмы, игры, сериалы, книги и музыка за 2013 и 2014 годы через торрент бесплатно. Скачивайте фильмы в хорошем качестве, игры для пк, xbox, playstation без регистрации. У нас вы найдете новые Зарубежные сериалы и Русские сериалы 2013, 2014, 2015 годов. Оставайтесь с нами, качайте любимые фильмы, игры, сериалы, книги и музыку.