img image001 image001 image001 image001 image001 image001 image001 image001 image001 image001 image001 image001 image001 image001 image001

Planets Sun Sun Sun
Статистика раздачи
Автор: Снежана | Размер: 1.46 ГБ | Добавлен: 27 июл 2013
Раздают: 39    Качают: 3
Скачать торрент
Скачать торрент
Описание торрента

СообщениеДобавлено: 27 июл 2013 

#77

«Земные секреты раскрыты чужими!»


#77

Год выпуска: 2013
Производство: США, Канада / Blue Yonder Films, Jon Shestack Productions, Protocol Pictures, Rainmaker Entertainment, Mainframe Entertainment
Жанр: Мультфильм, фантастика, комедия, приключения, семейный
Продолжительность: 01:29:15
Перевод: Профессиональный (полное дублирование) лицензия
Навигация по главам: Есть


Режиссер: Каллэн Брункер

В ролях: Джессика Альба, Брендан Фрейзер, Сара Джессика Паркер, Джейн Линч, Кэйтлин Олсен, Джеймс Гандольфини, Роб Кордри, Пол Рубенс, Крэйг Робинсон, Джошуа Раш, Грегг Бинкли, Джонатан Морган Хейт, Люси Девенпорт, Ник Барнс

О фильме: На планете Бааб, в самом центре Вселенной, два брата делают всё возможное, чтобы защитить свою галактику. Они — полные противоположности. Если девиз Гарри — «сначала подумай, потом сделай», то отважный Скорч живет по закону «сила есть — ума не надо», что не мешает им слаженно работать. Но однажды они получают сигнал S.O.S. с опасной планеты…под названием Земля. Скорч, сломя голову, бросается на помощь, и, разумеется, влипает в неприятности. Только Гарри может вытащить его из «Зоны 51». Братья откроют множество головокружительных тайн, но смогут ли они сбежать с самой опасной планеты во Вселенной?



Бюджет: $40 000 000





Качество: BDRip-AVC [Bluray Remux]
Формат: MKV
Видео: H.264, 988x424 (2.33:1), 23,976 fps, 1959 Кbps, 0.195 bit/pixel
Аудио: 48 kHz, AC3 Dolby Digital, 3/2 (L,C,R,l,r) + LFE ch, ~384.00 kbps avg


Автор рипа:



General
Unique ID : 228206409500093125262179747315637124586 (0xABAEF4AC685E1AFEA30F5D8B13597DEA)
Complete name : Pobeg.s.Planety.Zemlja.2013.D.BDRip.x264.potroks.mkv
Format : Matroska
Format version : Version 4 / Version 2
File size : 1.46 GiB
Duration : 1h 29mn
Overall bit rate : 2 343 Kbps
Movie name : -=POTROKS=-
Encoded date : UTC 2013-04-01 01:46:22
Writing application : mkvmerge v5.9.0 ('On The Loose') built on Dec 15 2012 16:39:58
Writing library : libebml v1.3.0 + libmatroska v1.4.0

Video
ID : 1
Format : AVC
Format/Info : Advanced Video Codec
Format profile : High@L4.1
Format settings, CABAC : Yes
Format settings, ReFrames : 11 frames
Codec ID : V_MPEG4/ISO/AVC
Duration : 1h 29mn
Bit rate : 1 959 Kbps
Width : 988 pixels
Height : 424 pixels
Display aspect ratio : 2.35:1
Frame rate mode : Constant
Frame rate : 23.976 fps
Color space : YUV
Chroma subsampling : 4:2:0
Bit depth : 8 bits
Scan type : Progressive
Bits/(Pixel*Frame) : 0.195
Stream size : 1.19 GiB (82%)
Title : Escape from Planet Earth
Writing library : x264 core 125 r2208 d9d2288
Encoding settings : cabac=1 / ref=11 / deblock=1:-1:-1 / analyse=0x3:0x133 / me=umh / subme=9 / psy=1 / psy_rd=1.00:0.00 / mixed_ref=1 / me_range=32 / chroma_me=1 / trellis=2 / 8x8dct=1 / cqm=0 / deadzone=21,11 / fast_pskip=0 / chroma_qp_offset=-2 / threads=6 / lookahead_threads=1 / sliced_threads=0 / nr=0 / decimate=1 / interlaced=0 / bluray_compat=0 / constrained_intra=0 / bframes=12 / b_pyramid=2 / b_adapt=2 / b_bias=0 / direct=3 / weightb=1 / open_gop=0 / weightp=2 / keyint=240 / keyint_min=23 / scenecut=40 / intra_refresh=0 / rc_lookahead=150 / rc=2pass / mbtree=1 / bitrate=1959 / ratetol=1.0 / qcomp=0.70 / qpmin=0 / qpmax=69 / qpstep=4 / cplxblur=20.0 / qblur=0.5 / vbv_maxrate=20000 / vbv_bufsize=22500 / nal_hrd=none / ip_ratio=1.35 / aq=1:0.90
Language : English
Default : Yes
Forced : No

Audio
ID : 2
Format : AC-3
Format/Info : Audio Coding 3
Mode extension : CM (complete main)
Format settings, Endianness : Big
Codec ID : A_AC3
Duration : 1h 29mn
Bit rate mode : Constant
Bit rate : 384 Kbps
Channel(s) : 6 channels
Channel positions : Front: L C R, Side: L R, LFE
Sampling rate : 48.0 KHz
Bit depth : 16 bits
Compression mode : Lossy
Stream size : 245 MiB (16%)
Title : Dub | DD 5.1 @ 384 kbps
Language : Russian
Default : Yes
Forced : Yes

Menu
00:00:00.000 : en:Chapter 01
00:08:21.584 : en:Chapter 02
00:15:30.888 : en:Chapter 03
00:25:19.809 : en:Chapter 04
00:32:23.274 : en:Chapter 05
00:40:41.522 : en:Chapter 06
00:49:52.572 : en:Chapter 07
00:57:21.980 : en:Chapter 08
01:06:59.015 : en:Chapter 09
01:13:39.164 : en:Chapter 10
01:21:54.242 : en:Chapter 11
x264 [info]: frame I:1495 Avg QP:16.31 size: 73751
x264 [info]: frame P:34708 Avg QP:18.59 size: 19027
x264 [info]: frame B:92209 Avg QP:22.59 size: 5857
x264 [info]: consecutive B-frames: 5.6% 5.1% 11.8% 37.1% 13.8% 18.5% 3.2% 2.3% 0.4% 0.2% 0.2% 0.3% 1.6%
x264 [info]: mb I I16..4: 9.1% 53.5% 37.4%
x264 [info]: mb P I16..4: 2.4% 10.1% 2.8% P16..4: 33.1% 14.8% 12.9% 1.2% 0.4% skip:22.3%
x264 [info]: mb B I16..4: 0.3% 1.3% 0.4% B16..8: 26.1% 8.6% 3.4% direct: 4.1% skip:55.8% L0:38.5% L1:43.2% BI:18.2%
x264 [info]: 8x8 transform intra:63.5% inter:58.4%
x264 [info]: direct mvs spatial:93.0% temporal:7.0%
x264 [info]: coded y,uvDC,uvAC intra: 75.3% 85.3% 66.7% inter: 17.4% 21.2% 8.8%
x264 [info]: i16 v,h,dc,p: 32% 25% 5% 38%
x264 [info]: i8 v,h,dc,ddl,ddr,vr,hd,vl,hu: 14% 18% 7% 7% 10% 10% 13% 9% 13%
x264 [info]: i4 v,h,dc,ddl,ddr,vr,hd,vl,hu: 13% 18% 5% 7% 12% 11% 13% 9% 12%
x264 [info]: i8c dc,h,v,p: 37% 29% 17% 17%
x264 [info]: Weighted P-Frames: Y:4.1% UV:1.7%
x264 [info]: ref P L0: 55.5% 12.7% 12.8% 5.2% 3.4% 2.9% 2.2% 1.5% 1.3% 1.2% 1.1% 0.3% 0.0%
x264 [info]: ref B L0: 79.4% 8.6% 4.4% 2.1% 1.7% 1.2% 1.1% 0.7% 0.5% 0.3%
x264 [info]: ref B L1: 93.4% 6.6%
x264 [info]: kb/s:1957.78






   Похожие торренты   Торрент   Размер 
В этой теме нет новых непрочитанных сообщений. Побег с планеты Земля / Escape from Planet Earth (2013) BDRip от Youtracker | D | Лицензия

132 | 6

1.45 ГБ

В этой теме нет новых непрочитанных сообщений. Побег с планеты Земля / Escape from Planet Earth (2013) BDRip от HQCLUB | Лицензия

792 | 48

1.45 ГБ

В этой теме нет новых непрочитанных сообщений. Побег с планеты Земля / Escape from Planet Earth (2013) BDRip-AVC от leonardo 59 | Лицензия

43 | 4

1.86 ГБ

В этой теме нет новых непрочитанных сообщений. Побег с планеты Земля / Escape from Planet Earth (2013) BDRip от Youtracker | D | Лицензия

13 | 2

747.67 МБ

В этой теме нет новых непрочитанных сообщений. Побег с планеты Земля / Escape from Planet Earth (2013) BDRip 720p от HELLYWOOD | Лицензия

89 | 4

4.37 ГБ

В этой теме нет новых непрочитанных сообщений. Побег с планеты Земля / Escape from Planet Earth (2013) BDRip 1080p от Youtracker | Лицензия

2 | 3

5.51 ГБ

В этой теме нет новых непрочитанных сообщений. Побег с планеты Земля / Escape from Planet Earth (2013) BDRip 720p от leonardo 59 | Лицензия

62 | 2

3.77 ГБ




Вы не можете начинать темы
Вы не можете отвечать на сообщения
Вы не можете редактировать свои сообщения
Вы не можете удалять свои сообщения
Вы не можете добавлять вложения

Перейти:  
Для Мосгорсуда, Роскомнадзора и рекламодателей: mosgorsud-torrent[собачка]yandex.ru
 Вход
ppkBB3cker v.2 © 2008-2014 @ PPK
[ Time : 0.047s | 14 Queries | GZIP : Off ]

Торрент трекер RUTOR.IN, Не можете зайти на rutor.org? Какой новый адрес рутор? Какое зеркало рутор? Не работает rutor.org и зеркала? Тогда наш торрент специально для вас. Rutor.in неофициальное зеркало rutor. В случае если у Вас заблокирован rutor или вдруг Вы не можете на него зайти, то Вы без труда сможете скачать бесплатно и без рекламы последние новинки кино, игр, сериалов и прочего у нас, на Rutor.in. Не нужно использовать прокси, чтобы зайти на рутор, достаточно воспользоваться нашим ресурсом. Все новые фильмы, игры, сериалы, книги и музыка за 2013 и 2014 годы через торрент бесплатно. Скачивайте фильмы в хорошем качестве, игры для пк, xbox, playstation без регистрации. У нас вы найдете новые Зарубежные сериалы и Русские сериалы 2013, 2014, 2015 годов. Оставайтесь с нами, качайте любимые фильмы, игры, сериалы, книги и музыку.