img image001 image001 image001 image001 image001 image001 image001 image001 image001 image001 image001 image001 image001 image001 image001

Planets Sun Sun Sun
Статистика раздачи
Автор: Снежана | Размер: 8.75 ГБ | Добавлен: 27 июл 2013
Раздают: 13    Качают: 9
Скачать торрент
Скачать торрент
Описание торрента

СообщениеДобавлено: 27 июл 2013 

Горбун из Нотр Дама

The Hunchback of Notre Dame

#77

Год выпуска: 1996
Страна: США
Жанр: мультфильм, мюзикл, драма, мелодрама, семейный
Продолжительность: 01:30:58
Перевод: Профессиональный дублированный

Режиссер: Гари Труздейл / Gary Trousdale, Кирк Уайз / Kirk Wise

В ролях:

Джейсон Александр (Hugo, озвучка), Мэри Кэй Бергман (Quasimodo's Mother, озвучка), Кори Бертон (Brutish Guard, озвучка), Билл Фагербакки (Oafish Guard, озвучка), Том Халс (Quasimodo, озвучка), Тони Джей (Frollo, озвучка), Пол Кандел (Clopin, озвучка), Чарльз Кимбро (Victor, озвучка), Кевин Клайн (Phoebus, озвучка), Хайди Молленхауер (Esmeralda, исполнитель песни), Деми Мур (Esmeralda, озвучка), Патрик Пинни (Guards, Gypsies, озвучка)

Дублёры: Юрий Мазихин (Hugo), Виктор Добронравов (Quasimodo), Игорь Балалаев (Frollo), Алексей Иващенко (Clopin), Александр Маракулин (Victor), Всеволод Кузнецов (Phoebus), Екатерина Гусева (Esmeralda), Алексей Колган (Archdeacon), Александра Назарова (Laverne)

Описание: Юная цыганка Эсмеральда зарабатывает на жизнь танцами. У нее есть друзья, но недоброжелатели столь могущественны, что Эсмеральда попадает в тюрьму. Звонарь Квазимодо устраивает девушке побег. А потом спасает ее, когда ослепленный ненавистью епископ Фролло пытается сам расправиться с ней. Этот мультфильм, в отличии от известного романа В. Гюго, кончается счастливо для главных героев.



MPAA: - Нет возрастных ограничений

Качество: BDRip
Контейнер: MKV
Видео: AVC, 1920x1080 (16:9), 6251 kbps, 23,976 fps, 0,126 bpp
Аудио №1: русский /; AC3 /; 2.0 /; 48 kHz /; 320 kbps /; 16 bit
Аудио №2: английский /; AC3 /; 2.0 /; 48 kHz /; 320 kbps /; 16 bit
Субтитры №1: русские, английские
Навигация по главам: есть
General
Unique ID : 248100377713277988833562322016443453304 (0xBAA66508C6F2D28597CFD74182624F78)
Complete name : E:TorrentThe Hunchback of Notre DameI- IIThe Hunchback of Notre Dame II(2002)1080p.F-HD.mkv
Format : Matroska
Format version : Version 4 / Version 2
File size : 4.37 GiB
Duration : 1h 5mn
Overall bit rate : 9 487 Kbps
Encoded date : UTC 2013-04-03 12:27:48
Writing application : mkvmerge v6.0.0 ('Coming Up For Air') built on Jan 20 2013 09:52:00
Writing library : libebml v1.3.0 + libmatroska v1.4.0

Video
ID : 1
Format : AVC
Format/Info : Advanced Video Codec
Format profile : High@L4.1
Format settings, CABAC : Yes
Format settings, ReFrames : 4 frames
Codec ID : V_MPEG4/ISO/AVC
Duration : 1h 5mn
Bit rate : 8 549 Kbps
Width : 1 800 pixels
Height : 1 074 pixels
Display aspect ratio : 1.676
Frame rate : 23.976 fps
Color space : YUV
Chroma subsampling : 4:2:0
Bit depth : 8 bits
Scan type : Progressive
Bits/(Pixel*Frame) : 0.184
Stream size : 3.84 GiB (88%)
Writing library : x264 core 129 r2230 1cffe9f
Encoding settings : cabac=1 / ref=4 / deblock=1:0:0 / analyse=0x3:0x113 / me=umh / subme=11 / psy=1 / psy_rd=0.80:0.00 / mixed_ref=1 / me_range=48 / chroma_me=1 / trellis=2 / 8x8dct=1 / cqm=0 / deadzone=21,11 / fast_pskip=0 / chroma_qp_offset=-2 / threads=6 / lookahead_threads=1 / sliced_threads=0 / nr=0 / decimate=1 / interlaced=0 / bluray_compat=0 / constrained_intra=0 / bframes=8 / b_pyramid=2 / b_adapt=2 / b_bias=0 / direct=3 / weightb=1 / open_gop=0 / weightp=2 / keyint=240 / keyint_min=23 / scenecut=40 / intra_refresh=0 / rc_lookahead=40 / rc=2pass / mbtree=0 / bitrate=8549 / ratetol=1.0 / qcomp=0.70 / qpmin=0 / qpmax=69 / qpstep=4 / cplxblur=20.0 / qblur=0.5 / vbv_maxrate=50000 / vbv_bufsize=65000 / nal_hrd=none / ip_ratio=1.40 / pb_ratio=1.30 / aq=1:0.60
Language : English
Default : Yes
Forced : No
Color primaries : BT.709-5, BT.1361, IEC 61966-2-4, SMPTE RP177
Transfer characteristics : BT.709-5, BT.1361
Matrix coefficients : BT.709-5, BT.1361, IEC 61966-2-4 709, SMPTE RP177

Audio #1
ID : 2
Format : AC-3
Format/Info : Audio Coding 3
Mode extension : CM (complete main)
Codec ID : A_AC3
Duration : 1h 5mn
Bit rate mode : Constant
Bit rate : 640 Kbps
Channel(s) : 6 channels
Channel positions : Front: L C R, Side: L R, LFE
Sampling rate : 48.0 KHz
Bit depth : 16 bits
Compression mode : Lossy
Stream size : 302 MiB (7%)
Language : Russian
Default : Yes
Forced : No

Audio #2
ID : 3
Format : AC-3
Format/Info : Audio Coding 3
Format profile : Dolby Digital
Mode extension : CM (complete main)
Codec ID : A_AC3
Duration : 1h 5mn
Bit rate mode : Constant
Bit rate : 320 Kbps
Channel(s) : 2 channels
Channel positions : Front: L R
Sampling rate : 48.0 KHz
Bit depth : 16 bits
Compression mode : Lossy
Stream size : 151 MiB (3%)
Language : English
Default : No
Forced : No

Text #1
ID : 4
Format : UTF-8
Codec ID : S_TEXT/UTF8
Codec ID/Info : UTF-8 Plain Text
Language : Russian
Default : No
Forced : No

Text #2
ID : 5
Format : UTF-8
Codec ID : S_TEXT/UTF8
Codec ID/Info : UTF-8 Plain Text
Language : English
Default : No
Forced : No

Menu
00:00:00.000 : en:00:00:00.000
00:03:44.974 : en:00:03:44.974
00:06:59.836 : en:00:06:59.836
00:08:11.365 : en:00:08:11.365
00:10:59.408 : en:00:10:59.408
00:14:03.509 : en:00:14:03.509
00:20:07.748 : en:00:20:07.748
00:21:37.045 : en:00:21:37.045
00:24:34.931 : en:00:24:34.931
00:26:42.142 : en:00:26:42.142
00:28:33.670 : en:00:28:33.670
00:29:25.513 : en:00:29:25.513
00:31:53.912 : en:00:31:53.912
00:34:23.019 : en:00:34:23.019
00:38:24.093 : en:00:38:24.093
00:40:42.690 : en:00:40:42.690
00:42:39.348 : en:00:42:39.348
00:44:22.785 : en:00:44:22.785
00:45:28.642 : en:00:45:28.642
00:48:05.007 : en:00:48:05.007
00:52:25.392 : en:00:52:25.392
00:54:19.381 : en:00:54:19.381
00:56:47.487 : en:00:56:47.487
00:59:51.629 : en:00:59:51.629

Премьера фильма состоялась 19 июня, 1996, в Суперкуполе в Новом Орлеане. Для показа использовались шесть огромных экранов, а предшествовал ему парад через Французский Квартал.
Песня «Когда-нибудь» была спета для титров группой All-4-One, но в европейской версии ее заменили на британскую группу Eternal.
Этот фильм почти получил рейтинг PG, в британском релизе он был отмечен маркой «Некоторые сцены, могут быть неприемлемы для просмотра маленькими детьми»
Чудовищ зовут Виктор, Гюго и Лаверн - имя и фамилия автора книги. Лаверн - вторая фамилия Гюго.
Старик, которого освобождают в конце - перевоплощение Джафара из Аладдина.
Когда Лаверн освобождает птиц, играет музыка из «Волшебника изумрудного города».
В роли статуй Нотр-Дама можно заметить Дональда Дакка и Микки Мауса.
Как и многие другие мультфильмы Диснея «Горбун из Нотр-Дама» не соответствует оригинальной истории Виктора Гюго. В книге Эсмеральда выходит замуж за Грегори - героя, чьи черты объединены с чертами молодого капитана в образе Фэба. Настоящий же Фэб бросил Эсмеральду ради другой девушки - Флер де Лисс. У Квазимодо в книге нет одного глаза, и он глух из-за звона колоколов. Эсмеральде по книге 16 лет, а Фролло - 35, он не судья, а священник - он и есть архидьякон. Эсмеральду по обвинению в колдовстве вешают, Квазимодо убивает Фролло и умирает сам от тоски на могиле Эсмеральды. Стоит ли говорить, что изменения, внесенные Диснеем в сюжет, были необходимы для того, чтобы историю для взрослых превратить в добрую сказку для детей.




Горбун из Нотр Дама 2 (видео)

The Hunchback of Notre Dame II

«Miracles Do Happen and True Love Can Come True»

#77
Год выпуска: 2002
Страна: США
Жанр: мультфильм, приключения, семейный
Продолжительность: 01:05:58
Перевод: Профессиональный дублированный

Режиссер: Брэдли Рэймонд / Bradley Raymond


Джейсон Александр (Hugo, озвучка), Дженнифер Лав Хьюитт (Madellaine, озвучка), Том Халс (Quasimodo, озвучка), Пол Кандел (Clopin, озвучка), Чарльз Кимбро (Victor, озвучка), Кевин Клайн (Phoebus, озвучка), Майкл МакКин (Sarousch, озвучка), Деми Мур (Esmeralda, озвучка), Хэйли Джоэл Осмент (Zephyr, озвучка), Джейн Уизерс (Laverne, озвучка), Джим Каммингс (Archdeacon, озвучка), Джо Лала (Guard #1, озвучка)

Описание: Продолжение приключений Диснеевского Квазимодо... Теперь, когда нет Фролло, Квазимодо звонит в колокол с помощью своего нового друга - малыша Зефира, сына Эсмеральды и Фоэбуса, но когда Квазимодо случайно заходит в странствующий цирк злого волшебника Саруша, он влюбляется в его ассистентку Мэделин, но жадный Саруш, заставляет Мэделин обманув Квазимодо, помочь украсть знаменитый колокол из Нотр-Даммского собора, который нужен ему, чтобы при помощи волшебства добиться могущества...



MPAA: - Нет возрастных ограничений

Качество: BDRip
Контейнер: MKV
Видео: AVC, 1800x1074 (1.676), 8549 kbps, 23,976 fps, 0,184 bpp
Аудио №1: русский /; AC3 /; 5.1 /; 48 kHz /; 640 kbps /; 16 bit
Аудио №2: английский /; AC3 /; 2.0 /; 48 kHz /; 320 kbps /; 16 bit
Субтитры №1: русские, английские
Навигация по главам: есть
General
Unique ID : 248100377713277988833562322016443453304 (0xBAA66508C6F2D28597CFD74182624F78)
Complete name : E:TorrentThe Hunchback of Notre DameI- IIThe Hunchback of Notre Dame II(2002)1080p.F-HD.mkv
Format : Matroska
Format version : Version 4 / Version 2
File size : 4.37 GiB
Duration : 1h 5mn
Overall bit rate : 9 487 Kbps
Encoded date : UTC 2013-04-03 12:27:48
Writing application : mkvmerge v6.0.0 ('Coming Up For Air') built on Jan 20 2013 09:52:00
Writing library : libebml v1.3.0 + libmatroska v1.4.0

Video
ID : 1
Format : AVC
Format/Info : Advanced Video Codec
Format profile : High@L4.1
Format settings, CABAC : Yes
Format settings, ReFrames : 4 frames
Codec ID : V_MPEG4/ISO/AVC
Duration : 1h 5mn
Bit rate : 8 549 Kbps
Width : 1 800 pixels
Height : 1 074 pixels
Display aspect ratio : 1.676
Frame rate : 23.976 fps
Color space : YUV
Chroma subsampling : 4:2:0
Bit depth : 8 bits
Scan type : Progressive
Bits/(Pixel*Frame) : 0.184
Stream size : 3.84 GiB (88%)
Writing library : x264 core 129 r2230 1cffe9f
Encoding settings : cabac=1 / ref=4 / deblock=1:0:0 / analyse=0x3:0x113 / me=umh / subme=11 / psy=1 / psy_rd=0.80:0.00 / mixed_ref=1 / me_range=48 / chroma_me=1 / trellis=2 / 8x8dct=1 / cqm=0 / deadzone=21,11 / fast_pskip=0 / chroma_qp_offset=-2 / threads=6 / lookahead_threads=1 / sliced_threads=0 / nr=0 / decimate=1 / interlaced=0 / bluray_compat=0 / constrained_intra=0 / bframes=8 / b_pyramid=2 / b_adapt=2 / b_bias=0 / direct=3 / weightb=1 / open_gop=0 / weightp=2 / keyint=240 / keyint_min=23 / scenecut=40 / intra_refresh=0 / rc_lookahead=40 / rc=2pass / mbtree=0 / bitrate=8549 / ratetol=1.0 / qcomp=0.70 / qpmin=0 / qpmax=69 / qpstep=4 / cplxblur=20.0 / qblur=0.5 / vbv_maxrate=50000 / vbv_bufsize=65000 / nal_hrd=none / ip_ratio=1.40 / pb_ratio=1.30 / aq=1:0.60
Language : English
Default : Yes
Forced : No
Color primaries : BT.709-5, BT.1361, IEC 61966-2-4, SMPTE RP177
Transfer characteristics : BT.709-5, BT.1361
Matrix coefficients : BT.709-5, BT.1361, IEC 61966-2-4 709, SMPTE RP177

Audio #1
ID : 2
Format : AC-3
Format/Info : Audio Coding 3
Mode extension : CM (complete main)
Codec ID : A_AC3
Duration : 1h 5mn
Bit rate mode : Constant
Bit rate : 640 Kbps
Channel(s) : 6 channels
Channel positions : Front: L C R, Side: L R, LFE
Sampling rate : 48.0 KHz
Bit depth : 16 bits
Compression mode : Lossy
Stream size : 302 MiB (7%)
Language : Russian
Default : Yes
Forced : No

Audio #2
ID : 3
Format : AC-3
Format/Info : Audio Coding 3
Format profile : Dolby Digital
Mode extension : CM (complete main)
Codec ID : A_AC3
Duration : 1h 5mn
Bit rate mode : Constant
Bit rate : 320 Kbps
Channel(s) : 2 channels
Channel positions : Front: L R
Sampling rate : 48.0 KHz
Bit depth : 16 bits
Compression mode : Lossy
Stream size : 151 MiB (3%)
Language : English
Default : No
Forced : No

Text #1
ID : 4
Format : UTF-8
Codec ID : S_TEXT/UTF8
Codec ID/Info : UTF-8 Plain Text
Language : Russian
Default : No
Forced : No

Text #2
ID : 5
Format : UTF-8
Codec ID : S_TEXT/UTF8
Codec ID/Info : UTF-8 Plain Text
Language : English
Default : No
Forced : No

Menu
00:00:00.000 : en:00:00:00.000
00:03:44.974 : en:00:03:44.974
00:06:59.836 : en:00:06:59.836
00:08:11.365 : en:00:08:11.365
00:10:59.408 : en:00:10:59.408
00:14:03.509 : en:00:14:03.509
00:20:07.748 : en:00:20:07.748
00:21:37.045 : en:00:21:37.045
00:24:34.931 : en:00:24:34.931
00:26:42.142 : en:00:26:42.142
00:28:33.670 : en:00:28:33.670
00:29:25.513 : en:00:29:25.513
00:31:53.912 : en:00:31:53.912
00:34:23.019 : en:00:34:23.019
00:38:24.093 : en:00:38:24.093
00:40:42.690 : en:00:40:42.690
00:42:39.348 : en:00:42:39.348
00:44:22.785 : en:00:44:22.785
00:45:28.642 : en:00:45:28.642
00:48:05.007 : en:00:48:05.007
00:52:25.392 : en:00:52:25.392
00:54:19.381 : en:00:54:19.381
00:56:47.487 : en:00:56:47.487
00:59:51.629 : en:00:59:51.629




Релиз от:



   Похожие торренты   Торрент   Размер 
В этой теме нет новых непрочитанных сообщений. Горбун из Нотр Дама / The Hunchback of Notre Dame (1996) BDRip 1080p

17 | 7

4.36 ГБ

В этой теме нет новых непрочитанных сообщений. Горбун из Нотр Дама / The Hunchback of Notre Dame (1996) BDRip 1080p от Youtracker

3 | 7

7.47 ГБ

В этой теме нет новых непрочитанных сообщений. Горбун из Нотр Дама / The Hunchback of Notre Dame (1996) BDRemux 1080p от HDTracker

0 | 44

24.4 ГБ

В этой теме нет новых непрочитанных сообщений. Горбун из Нотр Дама / The Hunchback of Notre Dame (1996) BDRip-AVC | iPad

12 | 4

1.29 ГБ

В этой теме нет новых непрочитанных сообщений. Горбун из Нотр Дама / The Hunchback of Notre Dame (1996) BDRip-AVC от 0ptimus | D, P2, A

23 | 9

2 ГБ

В этой теме нет новых непрочитанных сообщений. Горбун из Нотр Дама / The Hunchback of Notre Dame (1996) BDRip от HQCLUB

172 | 7

1.46 ГБ

В этой теме нет новых непрочитанных сообщений. Горбун из Нотр Дама 2 / The Hunchback of Notre Dame II (2002) BDRip от HQCLUB

154 | 9

1.09 ГБ




Вы не можете начинать темы
Вы не можете отвечать на сообщения
Вы не можете редактировать свои сообщения
Вы не можете удалять свои сообщения
Вы не можете добавлять вложения

Перейти:  
Для Мосгорсуда, Роскомнадзора и рекламодателей: mosgorsud-torrent[собачка]yandex.ru
 Вход
ppkBB3cker v.2 © 2008-2014 @ PPK
[ Time : 0.057s | 15 Queries | GZIP : Off ]

Торрент трекер RUTOR.IN, Не можете зайти на rutor.org? Какой новый адрес рутор? Какое зеркало рутор? Не работает rutor.org и зеркала? Тогда наш торрент специально для вас. Rutor.in неофициальное зеркало rutor. В случае если у Вас заблокирован rutor или вдруг Вы не можете на него зайти, то Вы без труда сможете скачать бесплатно и без рекламы последние новинки кино, игр, сериалов и прочего у нас, на Rutor.in. Не нужно использовать прокси, чтобы зайти на рутор, достаточно воспользоваться нашим ресурсом. Все новые фильмы, игры, сериалы, книги и музыка за 2013 и 2014 годы через торрент бесплатно. Скачивайте фильмы в хорошем качестве, игры для пк, xbox, playstation без регистрации. У нас вы найдете новые Зарубежные сериалы и Русские сериалы 2013, 2014, 2015 годов. Оставайтесь с нами, качайте любимые фильмы, игры, сериалы, книги и музыку.
cron