img image001 image001 image001 image001 image001 image001 image001 image001 image001 image001 image001 image001 image001 image001 image001

Planets Sun Sun Sun
Статистика раздачи
Автор: Снежана | Размер: 2.44 ГБ | Добавлен: 27 июл 2013
Раздают: 310    Качают: 9
Скачать торрент
Скачать торрент
Описание торрента

СообщениеДобавлено: 27 июл 2013 

#77

Информация о фильме
Название: Полярный Экспресс
Оригинальное название: The Polar Express
Год выхода: 2004
Жанр: Анимация, приключения, драма, семейный, фэнтези
Режиссер: Роберт Земекис
В ролях: Том Хэнкс, Эдди Дизен, Питер Сколари, Брендан Кинг, Гордон Харт, Майкл Джитер, Крис Коппола, Жульен Рени, Чарлз Флайшер, Стивен Тайлер
О фильме:
Необыкновенная история о маленьком мальчике, который верит в Санта Клауса, несмотря на то, что все друзья и вся семья в один голос утверждают, что это всего лишь сказка. И однажды искренняя вера мальчика вознаграждается. В канун Рождества у его дома останавливается волшебный поезд «Полярный экспресс» и уносит мальчика в чудесное незабываемое путешествие в гости к Санта Клаусу. И пока Рождественская ночь опускается на спящий мир, пассажиры «Полярного экспресса» мчатся на Северный Полюс, встречая на своем пути приключения и опасности, подстерегающие их в темных лесах, зловещих горах и ледяной тундре…

Страна: США, Warner Bros. Pictures, Castle Rock Entertainment
Продолжительность: 01:39:56
Перевод: Дублированный
Дата релиза: 04.04.2013

Файл
Кодек: H.264
Качество: BDRip (AVC) (Blu-ray Remux (1080p))
Видео: MPEG-4 AVC, 2600 Кбит/с, 1024x426, 23.976 кадра/сек
Звук: Русский (AC3, 6 ch, 448 Кбит/с), английский (AC3, 6 ch, 448 Кбит/с)

Семпл

Общее
Уникальный идентификатор : 238024460953880689195951222575485480935 (0xB311D7FBB9A33F1885C3069947F0EFE7)
Полное имя : E:Poljarnyj.ekspress.2004.x264.BDRip.(AVC).ExKinoRay.mkv
Формат : Matroska
Размер файла : 2,44 Гбайт
Продолжительность : 1 ч. 39 м.
Общий поток : 3496 Кбит/сек
Название фильма : Poljarnyj.ekspress.2004.x264.BDRip.(AVC).ExKinoRay
Дата кодирования : UTC 2013-04-04 18:39:59
Программа кодирования : mkvmerge v4.0.0 ('The Stars were mine') сборка от Jun 6 2010 16:18:42
Библиотека кодирования : libebml v1.0.0 + libmatroska v1.0.0

Видео
Идентификатор : 1
Формат : AVC
Формат/Информация : Advanced Video Codec
Профиль формата : High@L4.1
Параметр CABAC формата : Да
Параметр ReFrames формата : 8 кадров
Идентификатор кодека : V_MPEG4/ISO/AVC
Продолжительность : 1 ч. 39 м.
Битрейт : 2600 Кбит/сек
Ширина : 1024 пикс.
Высота : 426 пикс.
Соотношение сторон : 2,40:1
Частота кадров : 23,976 кадр/сек
Цветовое пространство : YUV
Подвыборка цветности : 4:2:0
Битовая глубина : 8 бит
Тип развёртки : Прогрессивная
Бит/(Пиксели*Кадры) : 0.249
Размер потока : 1,77 Гбайт (72%)
Заголовок : Rip by Enigma-Vladislav71
Библиотека кодирования : x264 core 92 r1510 33d382a
Настройки программы : cabac=1 / ref=8 / deblock=1:-2:-2 / analyse=0x3:0x133 / me=umh / subme=10 / psy=1 / psy_rd=1.00:0.00 / mixed_ref=1 / me_range=48 / chroma_me=1 / trellis=2 / 8x8dct=1 / cqm=0 / deadzone=21,11 / fast_pskip=0 / chroma_qp_offset=-2 / threads=3 / sliced_threads=0 / nr=0 / decimate=1 / interlaced=0 / constrained_intra=0 / bframes=8 / b_pyramid=2 / b_adapt=2 / b_bias=0 / direct=3 / wpredb=1 / wpredp=2 / keyint=250 / keyint_min=23 / scenecut=40 / intra_refresh=0 / rc=2pass / mbtree=0 / bitrate=2600 / ratetol=1.0 / qcomp=0.60 / qpmin=10 / qpmax=51 / qpstep=4 / cplxblur=20.0 / qblur=0.5 / ip_ratio=1.40 / pb_ratio=1.30 / aq=1:1.00
Язык : English

Аудио #1
Идентификатор : 2
Формат : AC-3
Формат/Информация : Audio Coding 3
Расширение режима : CM (complete main)
Идентификатор кодека : A_AC3
Продолжительность : 1 ч. 39 м.
Вид битрейта : Постоянный
Битрейт : 448 Кбит/сек
Каналы : 6 каналов
Расположение каналов : Front: L C R, Side: L R, LFE
Частота : 48,0 КГц
Битовая глубина : 16 бит
Метод сжатия : С потерями
Размер потока : 320 Мбайт (13%)
Язык : Russian

Аудио #2
Идентификатор : 3
Формат : AC-3
Формат/Информация : Audio Coding 3
Расширение режима : CM (complete main)
Идентификатор кодека : A_AC3
Продолжительность : 1 ч. 39 м.
Вид битрейта : Постоянный
Битрейт : 448 Кбит/сек
Каналы : 6 каналов
Расположение каналов : Front: L C R, Side: L R, LFE
Частота : 48,0 КГц
Битовая глубина : 16 бит
Метод сжатия : С потерями
Размер потока : 320 Мбайт (13%)
Заголовок : английский
Язык : English




Релиз от:

Авторы релиза:



   Похожие торренты   Торрент   Размер 
В этой теме нет новых непрочитанных сообщений. Полярный экспресс / The Polar Express (2004) BDRip 1080

15 | 5

6.87 ГБ

В этой теме нет новых непрочитанных сообщений. Полярный экспресс / The Polar Express (2004) BDRip 1080p

218 | 125

4.37 ГБ

В этой теме нет новых непрочитанных сообщений. Полярный Экспресс / Polar Express (2004) BDRip-AVC от Alexandrov1994 | D, P, A

79 | 14

3.93 ГБ

В этой теме нет новых непрочитанных сообщений. Полярный экспресс / The Polar Express (2004) BDRip от HQCLUB

978 | 39

1.45 ГБ

В этой теме нет новых непрочитанных сообщений. Полярный Экспресс / The Polar Express (2004) BDRip 720p

19 | 9

4.38 ГБ

В этой теме нет новых непрочитанных сообщений. Полярный экспресс 3Д / The Polar Express 3D (2004) BDRip 1080p | 3D

25 | 9

10.02 ГБ

В этой теме нет новых непрочитанных сообщений. Полярный экспресс 3Д / The Polar Express 3D (2004) BDRip 720p | 3D

16 | 4

3.54 ГБ




Вы не можете начинать темы
Вы не можете отвечать на сообщения
Вы не можете редактировать свои сообщения
Вы не можете удалять свои сообщения
Вы не можете добавлять вложения

Перейти:  
Для Мосгорсуда, Роскомнадзора и рекламодателей: mosgorsud-torrent[собачка]yandex.ru
 Вход
ppkBB3cker v.2 © 2008-2014 @ PPK
[ Time : 0.054s | 14 Queries | GZIP : Off ]

Торрент трекер RUTOR.IN, Не можете зайти на rutor.org? Какой новый адрес рутор? Какое зеркало рутор? Не работает rutor.org и зеркала? Тогда наш торрент специально для вас. Rutor.in неофициальное зеркало rutor. В случае если у Вас заблокирован rutor или вдруг Вы не можете на него зайти, то Вы без труда сможете скачать бесплатно и без рекламы последние новинки кино, игр, сериалов и прочего у нас, на Rutor.in. Не нужно использовать прокси, чтобы зайти на рутор, достаточно воспользоваться нашим ресурсом. Все новые фильмы, игры, сериалы, книги и музыка за 2013 и 2014 годы через торрент бесплатно. Скачивайте фильмы в хорошем качестве, игры для пк, xbox, playstation без регистрации. У нас вы найдете новые Зарубежные сериалы и Русские сериалы 2013, 2014, 2015 годов. Оставайтесь с нами, качайте любимые фильмы, игры, сериалы, книги и музыку.