img image001 image001 image001 image001 image001 image001 image001 image001 image001 image001 image001 image001 image001 image001 image001

Planets Sun Sun Sun
Статистика раздачи
Автор: Снежана | Размер: 2.35 ГБ | Добавлен: 27 июл 2013
Раздают: 13    Качают: 5
Скачать торрент
Скачать торрент
Описание торрента

СообщениеДобавлено: 27 июл 2013 

#77


Информация о фильме
Название: Приключения Винни Пуха
Оригинальное название: The Many Adventures of Winnie the Pooh
Год выхода: 1977
Жанр: мультфильм, комедия, семейный
Режиссер: Джон Лоунсбери, Вольфганг Райтерман

О фильме:
Кто такой Винни Пух, знают все. Этот мультфильм производства компании Уолта Диснея основан на оригинальных иллюстрациях четырехтомного собрания о Винни Пухе Эрнеста Шепарда. Познакомьтесь с Винни Пухом, каким его видят англоязычные ценители и который, конечно, отличается от русской версии Бориса Заходера.


Страна: США
Студия: Walt Disney Productions
Продолжительность: 01:13:59
Перевод: Дублированный, профессиональный (многоголосый закадровый), профессиональный (двухголосый закадровый), авторский (одноголосый закадровый)

Файл
Кодек: h.264
Качество: BDRip-AVC
Видео: 2051 Кбит/с, 956x576, 23.976 кадр/с

Звук:
• №1: Русский (AC3, 6 ch, 384 Кбит/с) Дублированный [Невафильм]
• №2: Русский (AC3, 6 ch, 384 Кбит/с) Авторский одноголосый [Юрий Живов, новый перевод]
• №3: Английский (AC3, 6 ch, 384 Кбит/с)
Отдельно:
• №4: Русский (AC3, 6 ch, 384 Кбит/с) Профессиональный многоголосый [Карусель]
• №5: Русский (AC3, 6 ch, 384 Кбит/с) Профессиональный двухголосый [Петр Гланц и Татьяна Казакова]
• №6: Русский (AC3, 2 ch, 192 Кбит/с) Профессиональный двухголосый
• №7: Русский (AC3, 1 ch, 192 Кбит/с) Авторский одноголосый [Юрий Живов, старый перевод (VHS)]
• №8: Русский (AC3, 1 ch, 192 Кбит/с) Авторский одноголосый [Вартан Дохалов (VHS)]

Субтитры:
• Русские
• Английские
• Английские (Pooh's Pop-Up Fun Facts)

Фильм включил в себя три ранее выпущенных короткометражных фильма:
• Винни-Пух и медовое дерево / Winnie the Pooh and the Honey Tree (1966)
• Винни Пух и ненастный день / Winnie the Pooh and the Blustery Day (1968)
• Винни Пух и Тигра тоже / Winnie the Pooh and Tigger Too! (1974)

Полное имя : Priklyuchenija.Vinni.Puha.1977.x264.BDRip.(AVC).0ptimus.mkv
Формат : Matroska
Версия формата : Version 4 / Version 2
Размер файла : 1,66 Гбайт
Продолжительность : 1 ч. 14 м.
Общий поток : 3202 Кбит/сек
Название фильма : Приключения Винни Пуха | The Many Adventures of Winnie the Pooh [1977] -=BDRip (AVC) by 0ptimus=-
Дата кодирования : UTC 2013-04-12 07:06:25
Программа кодирования : mkvmerge v6.1.0 ('Old Devil') built on Mar 2 2013 14:32:37
Библиотека кодирования : libebml v1.3.0 + libmatroska v1.4.0

Видео
Идентификатор : 1
Формат : AVC
Формат/Информация : Advanced Video Codec
Профиль формата : High@L4.1
Параметр CABAC формата : Да
Параметр ReFrames формата : 11 кадров
Идентификатор кодека : V_MPEG4/ISO/AVC
Продолжительность : 1 ч. 14 м.
Битрейт : 2051 Кбит/сек
Ширина : 956 пикселей
Высота : 576 пикселей
Соотношение сторон : 1,660
Частота кадров : 23,976 кадра/сек
Цветовое пространство : YUV
Субдискретизация насыщенности : 4:2:0
Битовая глубина : 8 бит
Тип развёртки : Прогрессивная
Бит/(Пиксели*Кадры) : 0.155
Размер потока : 1,03 Гбайт (62%)
Заголовок : Rip by 0ptimus
Библиотека кодирования : x264 core 130 r2273 b3065e6
Настройки программы : cabac=1 / ref=11 / deblock=1:-3:-3 / analyse=0x3:0x113 / me=umh / subme=11 / psy=1 / psy_rd=1.00:0.20 / mixed_ref=1 / me_range=32 / chroma_me=1 / trellis=2 / 8x8dct=1 / cqm=0 / deadzone=21,11 / fast_pskip=0 / chroma_qp_offset=-3 / threads=3 / lookahead_threads=1 / sliced_threads=0 / nr=0 / decimate=0 / interlaced=0 / bluray_compat=0 / constrained_intra=0 / bframes=9 / b_pyramid=2 / b_adapt=2 / b_bias=0 / direct=3 / weightb=1 / open_gop=0 / weightp=2 / keyint=240 / keyint_min=23 / scenecut=40 / intra_refresh=0 / rc_lookahead=40 / rc=2pass / mbtree=0 / bitrate=2051 / ratetol=1.0 / qcomp=0.60 / qpmin=0 / qpmax=69 / qpstep=4 / cplxblur=20.0 / qblur=0.5 / vbv_maxrate=50000 / vbv_bufsize=50000 / nal_hrd=none / ip_ratio=1.40 / pb_ratio=1.30 / aq=1:1.00
Язык : English

Аудио #1
Идентификатор : 2
Формат : AC-3
Формат/Информация : Audio Coding 3
Расширение режима : CM (complete main)
Идентификатор кодека : A_AC3
Продолжительность : 1 ч. 14 м.
Вид битрейта : Постоянный
Битрейт : 384 Кбит/сек
Каналы : 6 каналов
Расположение каналов : Front: L C R, Side: L R, LFE
Частота : 48,0 КГц
Битовая глубина : 16 бит
Метод сжатия : С потерями
Размер потока : 204 Мбайт (12%)
Заголовок : Дублированный [Невафильм]
Язык : Russian

Аудио #2
Идентификатор : 3
Формат : AC-3
Формат/Информация : Audio Coding 3
Расширение режима : CM (complete main)
Идентификатор кодека : A_AC3
Продолжительность : 1 ч. 14 м.
Вид битрейта : Постоянный
Битрейт : 384 Кбит/сек
Каналы : 6 каналов
Расположение каналов : Front: L C R, Side: L R, LFE
Частота : 48,0 КГц
Битовая глубина : 16 бит
Метод сжатия : С потерями
Размер потока : 204 Мбайт (12%)
Заголовок : Авторский [Юрий Живов, новый перевод]
Язык : Russian

Аудио #3
Идентификатор : 4
Формат : AC-3
Формат/Информация : Audio Coding 3
Расширение режима : CM (complete main)
Идентификатор кодека : A_AC3
Продолжительность : 1 ч. 14 м.
Вид битрейта : Постоянный
Битрейт : 384 Кбит/сек
Каналы : 6 каналов
Расположение каналов : Front: L C R, Side: L R, LFE
Частота : 48,0 КГц
Битовая глубина : 16 бит
Метод сжатия : С потерями
Размер потока : 204 Мбайт (12%)
Язык : English

Текст #1
Идентификатор : 5
Формат : UTF-8
Идентификатор кодека : S_TEXT/UTF8
Идентификатор кодека/Информация : UTF-8 Plain Text
Язык : Russian

Текст #2
Идентификатор : 6
Формат : UTF-8
Идентификатор кодека : S_TEXT/UTF8
Идентификатор кодека/Информация : UTF-8 Plain Text
Язык : English

Текст #3
Идентификатор : 7
Формат : UTF-8
Идентификатор кодека : S_TEXT/UTF8
Идентификатор кодека/Информация : UTF-8 Plain Text
Заголовок : Pooh's Pop-Up Fun Facts
Язык : English

Меню
00:00:00.000 : :Open Credits / "Winnie the Pooh"
00:03:14.360 : :Winnie the Pooh and the Honey Tree
00:04:04.243 : :"Up, Down, Touch the Ground"
00:05:59.734 : :"Rumbly in My Tumbly"
00:07:38.332 : :"Little Black Rain Cloud"
00:13:47.827 : :Pooh Pays a Visit to Rabbit
00:16:43.585 : :Owl Tries to Help
00:19:14.319 : :Pooh Remains Stuck
00:23:37.541 : :Today Is the Day!
00:25:49.714 : :Winnie the Pooh and the Blustery Day
00:30:10.892 : :Piglet and Pooh Visit Owl
00:33:02.480 : :A Blustery Night and a New Arrival
00:36:36.569 : :"the Wonderful Thing About Tiggers"
00:36:51.709 : :"Heffalumps and Woozles"
00:41:20.311 : :"the Rain, Rain, Rain, Came Down, Down, Down"
00:45:12.000 : :A Hero Party ("Hip Hooray for Winnie the Pooh")
00:49:33.720 : :Winnie the Pooh and Tigger Too
00:55:36.958 : :Lost!
01:00:29.125 : :The First Snowfall
01:04:10.972 : :Pooh Is Having a Problem
01:11:35.749 : :The Final Chapter

x264 [info]: frame I:857 Avg QP:15.70 size:127741
x264 [info]: frame P:29774 Avg QP:19.55 size: 20129
x264 [info]: frame B:75806 Avg QP:19.78 size: 5668



Релиз от:



   Похожие торренты   Торрент   Размер 
В этой теме нет новых непрочитанных сообщений. Приключения Винни Пуха / The Many Adventures of Winnie the Pooh (1977) BDRip 1080

4 | 3

4.7 ГБ

В этой теме нет новых непрочитанных сообщений. Приключения Винни Пуха / The Many Adventures of Winnie the Pooh (1977) BDRip от MediaClub

3 | 2

1.48 ГБ

В этой теме нет новых непрочитанных сообщений. Приключения Винни Пуха / The Many Adventures of Winnie the Pooh (1977) BDRip от HQCLUB

58 | 7

1.45 ГБ

В этой теме нет новых непрочитанных сообщений. Приключения Винни Пуха / The Many Adventures of Winnie the Pooh (1977) DVDRip от Youtracker | D

5 | 2

1.46 ГБ

В этой теме нет новых непрочитанных сообщений. Приключения Винни Пуха / The Many Adventures of Winnie the Pooh (1977) DVDRip-AVC от Youtracker | D

157 | 3

1.46 ГБ

В этой теме нет новых непрочитанных сообщений. Приключения Винни Пуха / The Many Adventures of Winnie the Pooh (1977) DVDRip от Youtracker | D

119 | 8

745.2 МБ

В этой теме нет новых непрочитанных сообщений. Приключения Винни Пуха / The Many Adventures of Winnie the Pooh (1977) DVD5 R5 от Youtracker | D

8 | 5

3.41 ГБ




Вы не можете начинать темы
Вы не можете отвечать на сообщения
Вы не можете редактировать свои сообщения
Вы не можете удалять свои сообщения
Вы не можете добавлять вложения

Перейти:  
Для Мосгорсуда, Роскомнадзора и рекламодателей: mosgorsud-torrent[собачка]yandex.ru
 Вход
ppkBB3cker v.2 © 2008-2014 @ PPK
[ Time : 0.023s | 13 Queries | GZIP : Off ]
CGP output time : 0.073s | 5 Queries | GZIP : Off

Торрент трекер RUTOR.IN, Не можете зайти на rutor.org? Какой новый адрес рутор? Какое зеркало рутор? Не работает rutor.org и зеркала? Тогда наш торрент специально для вас. Rutor.in неофициальное зеркало rutor. В случае если у Вас заблокирован rutor или вдруг Вы не можете на него зайти, то Вы без труда сможете скачать бесплатно и без рекламы последние новинки кино, игр, сериалов и прочего у нас, на Rutor.in. Не нужно использовать прокси, чтобы зайти на рутор, достаточно воспользоваться нашим ресурсом. Все новые фильмы, игры, сериалы, книги и музыка за 2013 и 2014 годы через торрент бесплатно. Скачивайте фильмы в хорошем качестве, игры для пк, xbox, playstation без регистрации. У нас вы найдете новые Зарубежные сериалы и Русские сериалы 2013, 2014, 2015 годов. Оставайтесь с нами, качайте любимые фильмы, игры, сериалы, книги и музыку.