img image001 image001 image001 image001 image001 image001 image001 image001 image001 image001 image001 image001 image001 image001 image001

Planets Sun Sun Sun
Статистика раздачи
Автор: Снежана | Размер: 1.07 ГБ | Добавлен: 27 июл 2013
Раздают: 9    Качают: 5
Скачать торрент
Скачать торрент
Описание торрента

СообщениеДобавлено: 27 июл 2013 

#77

Информация о фильме
Название: Тарзан-размазня
Оригинальное название: Jelly T
Год выхода: 2012
Жанр: Мультфильм, комедия, семейный
Режиссер: Майкл Хэгнер
В ролях: Бьярне Хенриксен, Николай Коперникус, Туре Линдхардт, Карен-Лисе Мюнстер, Сесиль Стенспил

О фильме:
Ваня — типичный лузер и неудачник. Над ним измываются в школе и пилят дома. Однажды он решает измениться и тут же встречает… самую настоящую ведьму. Та соглашается исполнить любое его желание. Парень выбирает суперсилу. Но колдунья оказалась непутевой и выполнила просьбу всего на один день! Можно ли изменить свою жизнь за 24 часа, обладая шикарной внешностью? Наш маленький Геракл Ваня ответит на этот вопрос!

Страна: Дания, Crone Film Produktion A/S , European Film Bonds
Продолжительность: 01:20:35
Перевод: Профессиональный многоголосый
Дата релиза: 15.04.2013

Файл
Кодек: H.264
Качество: HDRip (AVC)
Видео: MPEG-4 AVC, 1711 Кбит/с, 1024x554
Звук: Русский (AC3, 2 ch, 192 Кбит/с)

Общее
Уникальный идентификатор : 212931436678213829115076536487696242662 (0xA0311A5E353123BAB150DA96348997E6)
Полное имя : D:фильмыTarzan.razmaznja.2012.x264.x264.HDRip.(AVC).ExKinoRay.mkv
Формат : Matroska
Размер файла : 1,07 Гбайт
Продолжительность : 1 ч. 20 м.
Общий поток : 1901 Кбит/сек
Название фильма : Tarzan.razmaznja.2012.x264.x264.HDRip.(AVC).ExKinoRay
Дата кодирования : UTC 2013-04-13 20:31:10
Программа кодирования : mkvmerge v4.0.0 ('The Stars were mine') сборка от Jun 6 2010 16:18:42
Библиотека кодирования : libebml v1.0.0 + libmatroska v1.0.0

Видео
Идентификатор : 1
Формат : AVC
Формат/Информация : Advanced Video Codec
Профиль формата : High@L4.1
Параметр CABAC формата : Да
Параметр ReFrames формата : 8 кадров
Идентификатор кодека : V_MPEG4/ISO/AVC
Продолжительность : 1 ч. 20 м.
Битрейт : 1711 Кбит/сек
Ширина : 1024 пикс.
Высота : 554 пикс.
Соотношение сторон : 16:9
Частота кадров : 24,000 кадр/сек
Цветовое пространство : YUV
Подвыборка цветности : 4:2:0
Битовая глубина : 8 бит
Тип развёртки : Прогрессивная
Бит/(Пиксели*Кадры) : 0.126
Размер потока : 964 Мбайт (88%)
Заголовок : Rip by Enigma-Vladislav71
Библиотека кодирования : x264 core 92 r1510 33d382a
Настройки программы : cabac=1 / ref=8 / deblock=1:-2:-1 / analyse=0x3:0x133 / me=umh / subme=10 / psy=1 / psy_rd=1.00:0.00 / mixed_ref=1 / me_range=32 / chroma_me=1 / trellis=2 / 8x8dct=1 / cqm=0 / deadzone=21,11 / fast_pskip=0 / chroma_qp_offset=-2 / threads=3 / sliced_threads=0 / nr=0 / decimate=0 / interlaced=0 / constrained_intra=0 / bframes=8 / b_pyramid=2 / b_adapt=2 / b_bias=0 / direct=3 / wpredb=1 / wpredp=2 / keyint=240 / keyint_min=23 / scenecut=40 / intra_refresh=0 / rc=2pass / mbtree=0 / bitrate=1711 / ratetol=1.0 / qcomp=0.60 / qpmin=10 / qpmax=51 / qpstep=4 / cplxblur=20.0 / qblur=0.5 / ip_ratio=1.40 / pb_ratio=1.30 / aq=1:1.00

Аудио
Идентификатор : 2
Формат : AC-3
Формат/Информация : Audio Coding 3
Расширение режима : CM (complete main)
Идентификатор кодека : A_AC3
Продолжительность : 1 ч. 20 м.
Вид битрейта : Постоянный
Битрейт : 192 Кбит/сек
Каналы : 2 канала
Расположение каналов : Front: L R
Частота : 48,0 КГц
Битовая глубина : 16 бит
Метод сжатия : С потерями
Размер потока : 111 Мбайт (10%)
Язык : Russian


Семпл



Релиз от:

Авторы релиза:



   Похожие торренты   Торрент   Размер 
В этой теме нет новых непрочитанных сообщений. Тарзан-размазня / Jelly T (2012) BDRemux 1080p от ExKinoRay | P | Лицензия

10 | 9

9.83 ГБ

В этой теме нет новых непрочитанных сообщений. Тарзан-размазня 2D, 3D / Jelly T 2D, 3D (2012) BDRemux 1080p от ExKinoRay | 3D-Video | P | Лицензия

7 | 8

14.55 ГБ

В этой теме нет новых непрочитанных сообщений. Тарзан-размазня / Jelly T (2012) HDRip от Getty

41 | 5

1.37 ГБ

В этой теме нет новых непрочитанных сообщений. Тарзан-размазня / Jelly T (2012) DVD9

0 | 3

6.21 ГБ

В этой теме нет новых непрочитанных сообщений. Тарзан-размазня / Jelly T (2012) BDRip 720p

4 | 3

2.75 ГБ

В этой теме нет новых непрочитанных сообщений. Тарзан - размазня / Gummi T (2012) HDRip от CinemaClub

1 | 6

698.77 МБ

В этой теме нет новых непрочитанных сообщений. Тарзан-размазня / Gummi T (2012) BDRip-AVC от HELLYWOOD | P

75 | 49

1.46 ГБ




Вы не можете начинать темы
Вы не можете отвечать на сообщения
Вы не можете редактировать свои сообщения
Вы не можете удалять свои сообщения
Вы не можете добавлять вложения

Перейти:  
Для Мосгорсуда, Роскомнадзора и рекламодателей: mosgorsud-torrent[собачка]yandex.ru
 Вход
ppkBB3cker v.2 © 2008-2014 @ PPK
[ Time : 0.046s | 15 Queries | GZIP : Off ]

Торрент трекер RUTOR.IN, Не можете зайти на rutor.org? Какой новый адрес рутор? Какое зеркало рутор? Не работает rutor.org и зеркала? Тогда наш торрент специально для вас. Rutor.in неофициальное зеркало rutor. В случае если у Вас заблокирован rutor или вдруг Вы не можете на него зайти, то Вы без труда сможете скачать бесплатно и без рекламы последние новинки кино, игр, сериалов и прочего у нас, на Rutor.in. Не нужно использовать прокси, чтобы зайти на рутор, достаточно воспользоваться нашим ресурсом. Все новые фильмы, игры, сериалы, книги и музыка за 2013 и 2014 годы через торрент бесплатно. Скачивайте фильмы в хорошем качестве, игры для пк, xbox, playstation без регистрации. У нас вы найдете новые Зарубежные сериалы и Русские сериалы 2013, 2014, 2015 годов. Оставайтесь с нами, качайте любимые фильмы, игры, сериалы, книги и музыку.