img image001 image001 image001 image001 image001 image001 image001 image001 image001 image001 image001 image001 image001 image001 image001

Planets Sun Sun Sun
Статистика раздачи
Автор: Снежана | Размер: 4.37 ГБ | Добавлен: 27 июл 2013
Раздают: 35    Качают: 3
Скачать торрент
Скачать торрент
Описание торрента

СообщениеДобавлено: 27 июл 2013 

Магазинчик самоубийств

Le magasin des suicides




#77
Год выпуска: 2012
Страна: Франция , Канада , Бельгия
Жанр: мультфильм, мюзикл, комедия
Продолжительность: 01:19:12
Перевод: Профессиональный (многоголосый закадровый)
Субтитры: Russian (UTF-8)

Режиссер: Патрис Леконт
Сценарий: Патрис Леконт, Жан Теле
Продюсер: Тома Лангманн, Эммануэль Монтамат, Жиль Подеста, ...
Композитор: -
Художник: Флориан Туре, Режис Видал

В ролях: Бернар Алан / Bernard Alane (Mishima, озвучка), Изабель Спад / Isabelle Spade (Lucrece, озвучка), Кейси Моттет Кляйн / Kacey Mottet Klein (Alan, озвучка), Изабель Джани / Isabelle Giani (Matilyn, озвучка), Лоран Жандрон / Laurent Gendron (Vincent, озвучка), Пьер-Франсуа Мартен-Лаваль / Pierre-François Martin-Laval (Le joli garçon, озвучка), Эрик Метайе / Eric Metayer (Le psy, Le SDF, озвучка), Жак Мату / Jacques Mathou (M. Calmel, M. Dead-For-Two, озвучка)


Описание: В неком городе, где жизнь невероятно уныла и невыносима, на протяжении многих поколений процветает магазин, который торгует всем необходимым для совершения самоубийств. Всё идёт замечательно до тех пор, пока в семье владельца этого магазина не рождается Алан — жизнелюбивый и весёлый малыш.

Сборы в России: $40 003
Зрители: Франция 264.2 тыс. , Россия 5.1 тыс.
Премьера (мир): 24 мая 2012, ...
Премьера (РФ): 7 марта 2013, «Премиум Фильм» 3D
Релиз на DVD: 18 апреля 2013, «CP Дистрибуция», ...
Релиз на Blu-Ray: 18 апреля 2013, «CP Дистрибуция», ...




Качество: BDRip
Формат: MKV
Видео кодек: AVC
Аудио кодеk: AC3
Видео: 1920x1080 (16:9), 23.976 fps, AVC, 7 009 Kbps
Аудио #1: AC3, 448 Kbps, 48.0 KHz, 6 ch (RUS MVO)
Аудио #2: AC3, 448 Kbps, 48.0 KHz, 6 ch (French)




Лог :
-[NoImage] x264 [info]: frame I:1439 Avg QP:14.72 size:257728
-[NoImage] x264 [info]: frame P:34982 Avg QP:17.01 size: 69191
-[NoImage] x264 [info]: frame B:77514 Avg QP:19.31 size: 17693

General
Complete name : Magazinchik.samoubiystv.2012.BDRip.1080p.mkv
Format : Matroska
File size : 4.37 GiB
Duration : 1h 19mn
Overall bit rate : 7 906 Kbps
Encoded date : UTC 2013-04-17 18:09:16
Writing application : mkvmerge v6.1.0 ('Old Devil') built on Mar 2 2013 14:32:37
Writing library : libebml v1.3.0 + libmatroska v1.4.0

Video
ID : 1
Format : AVC
Format/Info : Advanced Video Codec
Format profile : High@L4.1
Format settings, CABAC : Yes
Format settings, ReFrames : 4 frames
Muxing mode : Container profile=Unknown@4.1
Codec ID : V_MPEG4/ISO/AVC
Duration : 1h 19mn
Bit rate : 7 009 Kbps
Width : 1 920 pixels
Height : 1 080 pixels
Display aspect ratio : 16:9
Frame rate : 23.976 fps
Color space : YUV
Chroma subsampling : 4:2:0
Bit depth : 8 bits
Scan type : Progressive
Bits/(Pixel*Frame) : 0.141
Stream size : 3.79 GiB (87%)
Writing library : x264 core 130 r2273 b3065e6
Encoding settings : cabac=1 / ref=4 / deblock=1:0:0 / analyse=0x3:0x133 / me=umh / subme=10 / psy=1 / psy_rd=1.00:0.00 / mixed_ref=1 / me_range=32 / chroma_me=1 / trellis=2 / 8x8dct=1 / cqm=0 / deadzone=21,11 / fast_pskip=0 / chroma_qp_offset=-2 / threads=6 / lookahead_threads=1 / sliced_threads=0 / nr=0 / decimate=1 / interlaced=0 / bluray_compat=0 / constrained_intra=0 / bframes=8 / b_pyramid=2 / b_adapt=2 / b_bias=0 / direct=3 / weightb=1 / open_gop=0 / weightp=2 / keyint=230 / keyint_min=23 / scenecut=40 / intra_refresh=0 / rc=2pass / mbtree=0 / bitrate=7009 / ratetol=1.0 / qcomp=1.00 / qpmin=0 / qpmax=51 / qpstep=4 / cplxblur=20.0 / qblur=0.5 / ip_ratio=1.40 / pb_ratio=1.30 / aq=1:1.00
Color primaries : BT.709-5, BT.1361, IEC 61966-2-4, SMPTE RP177
Transfer characteristics : BT.709-5, BT.1361
Matrix coefficients : BT.709-5, BT.1361, IEC 61966-2-4 709, SMPTE RP177

Audio #1
ID : 2
Format : AC-3
Format/Info : Audio Coding 3
Mode extension : CM (complete main)
Codec ID : A_AC3
Duration : 1h 19mn
Bit rate mode : Constant
Bit rate : 448 Kbps
Channel(s) : 6 channels
Channel positions : Front: L C R, Side: L R, LFE
Sampling rate : 48.0 KHz
Bit depth : 16 bits
Stream size : 254 MiB (6%)
Title : МВО
Language : Russian

Audio #2
ID : 3
Format : AC-3
Format/Info : Audio Coding 3
Mode extension : CM (complete main)
Codec ID : A_AC3
Duration : 1h 19mn
Bit rate mode : Constant
Bit rate : 448 Kbps
Channel(s) : 6 channels
Channel positions : Front: L C R, Side: L R, LFE
Sampling rate : 48.0 KHz
Bit depth : 16 bits
Stream size : 254 MiB (6%)
Language : French

Text
ID : 4
Format : UTF-8
Codec ID : S_TEXT/UTF8
Codec ID/Info : UTF-8 Plain Text
Language : Russian

Menu
00:00:00.000 : en:00:00:00.000
00:07:33.870 : en:00:07:33.870
00:13:02.407 : en:00:13:02.407
00:18:25.021 : en:00:18:25.021
00:24:31.637 : en:00:24:31.637
00:30:33.707 : en:00:30:33.707
00:37:01.553 : en:00:37:01.553
00:42:59.535 : en:00:42:59.535
00:54:28.599 : en:00:54:28.599
01:02:52.060 : en:01:02:52.060
01:08:09.002 : en:01:08:09.002
01:13:44.378 : en:01:13:44.378




Релиз группы:



   Похожие торренты   Торрент   Размер 
В этой теме нет новых непрочитанных сообщений. Магазинчик самоубийств / Le magasin des suicides / The Suicide Shop (2012) BDRip 1080p | 3D-Video

47 | 7

6.33 ГБ

В этой теме нет новых непрочитанных сообщений. Магазинчик самоубийств / Магазин самоубийств / Le magasin des suicides (2012) HDRip от Youtracker | P

6 | 3

747.39 МБ

В этой теме нет новых непрочитанных сообщений. Магазинчик самоубийств / Магазин самоубийств / Le magasin des suicides (2012) HDRip от Youtracker | P | Лицензия

68 | 5

747.42 МБ

В этой теме нет новых непрочитанных сообщений. Магазинчик самоубийств 3D / Le magasin des suicides (2012) BDRip-AVC от Youtracker | P | лицензия

35 | 8

2.16 ГБ

В этой теме нет новых непрочитанных сообщений. OST - Магазинчик самоубийств / Le magasin des suicides (2012) MP3

7 | 3

163.02 МБ

В этой теме нет новых непрочитанных сообщений. Магазинчик самоубийств / Le magasin des suicides (2012) HDRip | КПК

7 | 5

364.06 МБ

В этой теме нет новых непрочитанных сообщений. Магазинчик самоубийств 3D / Le magasin des suicides (2012) HDRip от Youtracker | P | лицензия

308 | 12

1.46 ГБ




Вы не можете начинать темы
Вы не можете отвечать на сообщения
Вы не можете редактировать свои сообщения
Вы не можете удалять свои сообщения
Вы не можете добавлять вложения

Перейти:  
Для Мосгорсуда, Роскомнадзора и рекламодателей: mosgorsud-torrent[собачка]yandex.ru
 Вход
ppkBB3cker v.2 © 2008-2014 @ PPK
[ Time : 0.067s | 15 Queries | GZIP : Off ]

Торрент трекер RUTOR.IN, Не можете зайти на rutor.org? Какой новый адрес рутор? Какое зеркало рутор? Не работает rutor.org и зеркала? Тогда наш торрент специально для вас. Rutor.in неофициальное зеркало rutor. В случае если у Вас заблокирован rutor или вдруг Вы не можете на него зайти, то Вы без труда сможете скачать бесплатно и без рекламы последние новинки кино, игр, сериалов и прочего у нас, на Rutor.in. Не нужно использовать прокси, чтобы зайти на рутор, достаточно воспользоваться нашим ресурсом. Все новые фильмы, игры, сериалы, книги и музыка за 2013 и 2014 годы через торрент бесплатно. Скачивайте фильмы в хорошем качестве, игры для пк, xbox, playstation без регистрации. У нас вы найдете новые Зарубежные сериалы и Русские сериалы 2013, 2014, 2015 годов. Оставайтесь с нами, качайте любимые фильмы, игры, сериалы, книги и музыку.
cron