img image001 image001 image001 image001 image001 image001 image001 image001 image001 image001 image001 image001 image001 image001 image001

Planets Sun Sun Sun
Статистика раздачи
Автор: Снежана | Размер: 4.21 ГБ | Добавлен: 27 июл 2013
Раздают: 41    Качают: 7
Скачать торрент
Скачать торрент
Описание торрента

СообщениеДобавлено: 27 июл 2013 



Название: Винни Пух - Приключения Тигрули
Оригинальное название: The Tigger Movie
Перевод: Дублированный
Субтитры: Английские
Формат: BDRip, MKV, H.264, AC3/DTS
Страна: США
Режиссер: Джан Фалкенштейн
Жанр: мультфильм, мюзикл, семейный
Продолжительность: 01:17:07
Год выпуска: 2000

В ролях: Джим Каммингс, Никита Хопкинс, Кен Сэнсом, Джон Фидлер, Питер Каллен, Андрэ Стойка, Кэт Сауси, Том Аттэнборо, Джон Хёрт, Фрэнк Уэлкер[/color]

Описание: Винни Пух, Кролик, Сова, Иа-Иа занимаются приготовлениями к суровой зиме. Но поведение Тигры портит все напрочь. Кролик выгоняет Тигру искать таких же как он. Но Тигра уверен, что он единственный тигр на белом свете. Как бы то ни было, он отправляется на поиски своей семьи.



Видео: 1280x720p (16:9), 23.976 fps, AVC, ~6100 Kbps avg, 0.276 bit/pixel
Аудио 1: Русский, 48.0 KHz, AC3, 2 ch (Front: L R), 192 Kbps [Профессиональный (полное дублирование)]
Аудио 2: Английский, DTS / 5.1 Front: L C R, Side: L R, LFE / 48 kHz / 1509 kbps / 24-bit [Оригинал]
Общее
Уникальный идентификатор : 182895668230910538265032834376923317271 (0x89986CA66D1BE70A9335D07EFDB38417)
Полное имя : D:ФильмыThe.Tigger.Movie.2000.x264.BDRip.(720p)-Gravitator.mkv
Формат : Matroska
Версия формата : Version 2
Размер файла : 4,21 Гбайт
Продолжительность : 1 ч. 17 м.
Общий поток : 7806 Кбит/сек
Название фильма : Gravitator (Руслан19780)
Дата кодирования : UTC 2012-09-07 19:25:25
Программа кодирования : mkvmerge v4.8.0 ('I Got The...') сборка от May 24 2011 03:12:58
Библиотека кодирования : libebml v1.2.0 + libmatroska v1.1.0
Attachment : Yes

Видео
Идентификатор : 1
Формат : AVC
Формат/Информация : Advanced Video Codec
Профиль формата : High@L4.1
Параметр CABAC формата : Да
Параметр ReFrames формата : 9 кадров
Идентификатор кодека : V_MPEG4/ISO/AVC
Продолжительность : 1 ч. 17 м.
Битрейт : 6100 Кбит/сек
Ширина : 1280 пикселей
Высота : 720 пикселей
Соотношение сторон : 16:9
Режим частоты кадров : Постоянный
Частота кадров : 23,976 кадра/сек
Цветовое пространство : YUV
Субдискретизация насыщенности : 4:2:0
Битовая глубина : 8 бит
Тип развёртки : Прогрессивная
Бит/(Пиксели*Кадры) : 0.276
Размер потока : 3,21 Гбайт (76%)
Библиотека кодирования : x264 core 125 r2200 999b753
Настройки программы : cabac=1 / ref=9 / deblock=1:-1:-1 / analyse=0x3:0x133 / me=umh / subme=11 / psy=1 / psy_rd=0.80:0.00 / mixed_ref=1 / me_range=32 / chroma_me=1 / trellis=2 / 8x8dct=1 / cqm=0 / deadzone=21,11 / fast_pskip=1 / chroma_qp_offset=-2 / threads=6 / lookahead_threads=1 / sliced_threads=0 / nr=0 / decimate=1 / interlaced=0 / bluray_compat=0 / constrained_intra=0 / bframes=9 / b_pyramid=2 / b_adapt=2 / b_bias=0 / direct=3 / weightb=1 / open_gop=0 / weightp=2 / keyint=240 / keyint_min=23 / scenecut=40 / intra_refresh=0 / rc_lookahead=60 / rc=2pass / mbtree=1 / bitrate=6100 / ratetol=1.0 / qcomp=0.60 / qpmin=0 / qpmax=69 / qpstep=4 / cplxblur=20.0 / qblur=0.5 / ip_ratio=1.40 / aq=1:0.60
Язык : English
Default : Да
Forced : Нет

Аудио #1
Идентификатор : 2
Формат : AC-3
Формат/Информация : Audio Coding 3
Расширение режима : CM (complete main)
Параметр Endianness формата : Big
Идентификатор кодека : A_AC3
Продолжительность : 1 ч. 17 м.
Вид битрейта : Постоянный
Битрейт : 192 Кбит/сек
Каналы : 2 канала
Расположение каналов : Front: L R
Частота : 48,0 КГц
Битовая глубина : 16 бит
Метод сжатия : С потерями
Размер потока : 106 Мбайт (2%)
Заголовок : Dub
Язык : Russian
Default : Да
Forced : Нет

Аудио #2
Идентификатор : 3
Формат : DTS
Формат/Информация : Digital Theater Systems
Режим : 16
Параметр Endianness формата : Big
Идентификатор кодека : A_DTS
Продолжительность : 1 ч. 17 м.
Вид битрейта : Постоянный
Битрейт : 1509 Кбит/сек
Каналы : 6 каналов
Расположение каналов : Front: L C R, Side: L R, LFE
Частота : 48,0 КГц
Битовая глубина : 24 бит
Метод сжатия : С потерями
Задержка видео : 22 мс.
Размер потока : 832 Мбайт (19%)
Заголовок : Оригинал
Язык : English
Default : Нет
Forced : Нет

Текст
Идентификатор : 4
Формат : UTF-8
Идентификатор кодека : S_TEXT/UTF8
Идентификатор кодека/Информация : UTF-8 Plain Text
Язык : English
Default : Нет
Forced : Нет

Меню
00:00:00.000 : en:00:00:00.000
00:01:36.930 : en:00:01:36.930
00:04:48.788 : en:00:04:48.788
00:09:34.491 : en:00:09:34.491
00:12:44.430 : en:00:12:44.430
00:14:48.304 : en:00:14:48.304
00:18:09.630 : en:00:18:09.630
00:23:15.769 : en:00:23:15.769
00:24:43.232 : en:00:24:43.232
00:27:01.787 : en:00:27:01.787
00:27:55.757 : en:00:27:55.757
00:32:09.094 : en:00:32:09.094
00:35:44.100 : en:00:35:44.100
00:37:19.404 : en:00:37:19.404
00:41:49.006 : en:00:41:49.006
00:45:38.527 : en:00:45:38.527
00:49:58.787 : en:00:49:58.787
00:55:40.212 : en:00:55:40.212
00:58:59.786 : en:00:58:59.786
01:02:08.892 : en:01:02:08.892
01:07:05.438 : en:01:07:05.438
01:09:23.743 : en:01:09:23.743
01:11:44.425 : en:01:11:44.425













   Похожие торренты   Торрент   Размер 
В этой теме нет новых непрочитанных сообщений. Приключения Тигрули / The Tigger Movie (2000) BDRip-AVC | iPad

6 | 1

1.48 ГБ

В этой теме нет новых непрочитанных сообщений. Приключения Тигрули / The Tigger Movie (2000) BDRip от HQCLUB

31 | 1

1.46 ГБ

В этой теме нет новых непрочитанных сообщений. Приключения Тигрули / The Tigger Movie (2000) BDRip 720p от Leonardo and Scarabey

91 | 3

2.19 ГБ

В этой теме нет новых непрочитанных сообщений. Приключения Тигрули / The Tigger Movie (2000) BDRip 720p от Leonardo and Scarabey | iPad

157 | 14

1.33 ГБ

В этой теме нет новых непрочитанных сообщений. Мои друзья Тигруля и Винни / My Friends Tigger & Pooh (2007-2010) 9xDVD5 от Youtracker | D | Лицензия

1 | 5

37.41 ГБ

В этой теме нет новых непрочитанных сообщений. Мои друзья Тигруля и Винни / My Friends Tigger & Pooh (2007-2010) 9xDVD9 от Youtracker | D | Лицензия

1 | 2

46.5 ГБ

В этой теме нет новых непрочитанных сообщений. Мои друзья Тигруля и Винни: Сказки для друзей / My Friends Tigger & Pooh's Friendly Tails (2008) DVDRip

181 | 11

1.03 ГБ




Вы не можете начинать темы
Вы не можете отвечать на сообщения
Вы не можете редактировать свои сообщения
Вы не можете удалять свои сообщения
Вы не можете добавлять вложения

Перейти:  
Для Мосгорсуда, Роскомнадзора и рекламодателей: mosgorsud-torrent[собачка]yandex.ru
 Вход
ppkBB3cker v.2 © 2008-2014 @ PPK
[ Time : 0.038s | 15 Queries | GZIP : Off ]

Торрент трекер RUTOR.IN, Не можете зайти на rutor.org? Какой новый адрес рутор? Какое зеркало рутор? Не работает rutor.org и зеркала? Тогда наш торрент специально для вас. Rutor.in неофициальное зеркало rutor. В случае если у Вас заблокирован rutor или вдруг Вы не можете на него зайти, то Вы без труда сможете скачать бесплатно и без рекламы последние новинки кино, игр, сериалов и прочего у нас, на Rutor.in. Не нужно использовать прокси, чтобы зайти на рутор, достаточно воспользоваться нашим ресурсом. Все новые фильмы, игры, сериалы, книги и музыка за 2013 и 2014 годы через торрент бесплатно. Скачивайте фильмы в хорошем качестве, игры для пк, xbox, playstation без регистрации. У нас вы найдете новые Зарубежные сериалы и Русские сериалы 2013, 2014, 2015 годов. Оставайтесь с нами, качайте любимые фильмы, игры, сериалы, книги и музыку.
cron