img image001 image001 image001 image001 image001 image001 image001 image001 image001 image001 image001 image001 image001 image001 image001

Planets Sun Sun Sun
Статистика раздачи
Автор: Снежана | Размер: 741.94 МБ | Добавлен: 27 июл 2013
Раздают: 5    Качают: 3
Скачать торрент
Скачать торрент
Описание торрента

СообщениеДобавлено: 27 июл 2013 

#77

Страна: США
Жанр: мультфильм, мюзикл, фэнтези, комедия, семейный
Продолжительность: 01:17:25
Год выпуска: 1941
Перевод: Авторский (одноголосый закадровый) Сергей Визгунов
Субтитры: нет

Режиссёр: Дэйв Флейшер / Dave Fleischer

Роли озвучивали: Кенни Гарднер, Гвен Уильямс, Джек Мерсер, Тед Пирс, Карл Мейер, Стэн Фрид, Полин Лот, Пинто Колвиг...

Описание: Во дворе дома в крошечной общине дружно живут господин Шмель, его дочь пчелка Медок и насекомые-соседи. Сюда и возвращается жук Хоппити после долгой отлучки. Но с недавних пор люди создают угрозу уничтожения общине. Они топчут дома, поджигают их брошенными сигаретами. Этим решил воспользоваться Жук, чтобы избавиться от Хоппити и самому жениться на пчелке Медок. Но планам Жука сбыться не суждено. Хоппити находит выход из создавшегося положения, попутно завоевывая сердце красавицы Медок.


Доп. информация:
- Перевод Сергея Визгунова осуществлен в 2013 г. в рамках форума WIDESCREEN "Кино в Авторском переводе" по заказу Multmir, Dr. Destructo, Nick, xfiles, 48ronin, Letyoha3, denis_mgn_1987, 21Sepsis. За исходник спасибо "xfiles".





Качество: DVDRip
Формат: AVI
Видео кодек: XviD
Аудио кодек: MP3
Видео: 624x480 (1.30:1), 23.976 fps, XviD build 50 ~1202 kbps avg, 0.17 bit/pixel
Аудио: 48 kHz, MPEG Layer 3, 2 ch, ~128.00 kbps avg



D:HOPPITY_GOES_TO_TOWN_DVDRip. by dexter lex.avi
General
Complete name : D:HOPPITY_GOES_TO_TOWN_DVDRip. by dexter lex.avi
Format : AVI
Format/Info : Audio Video Interleave
File size : 742 MiB
Duration : 1h 17mn
Overall bit rate : 1 340 Kbps
Writing application : VirtualDubMod 1.5.10.3 | www.virtualdub-fr.org || (build 2550/release)
Writing library : VirtualDubMod build 2550/release
Video #0
ID : 0
Format : MPEG-4 Visual
Format profile : Advanced Simple@L5
Format settings, BVOP : 1
Format settings, QPel : No
Format settings, GMC : No warppoints
Format settings, Matrix : Custom
Codec ID : XVID
Codec ID/Hint : XviD
Duration : 1h 17mn
Bit rate : 1 202 Kbps
Width : 624 pixels
Height : 480 pixels
Display aspect ratio : 1.30:1
Frame rate : 23.976 fps
Color space : YUV
Chroma subsampling : 4:2:0
Bit depth : 8 bits
Scan type : Progressive
Compression mode : Lossy
Bits/(Pixel*Frame) : 0.167
Stream size : 666 MiB (90%)
Writing library : XviD 1.2.1 (UTC 2008-12-04)
Audio #1
ID : 1
Format : MPEG Audio
Format version : Version 1
Format profile : Layer 3
Codec ID : 55
Codec ID/Hint : MP3
Duration : 1h 17mn
Bit rate mode : Constant
Bit rate : 128 Kbps
Channel(s) : 2 channels
Sampling rate : 48.0 KHz
Compression mode : Lossy
Stream size : 70.9 MiB (10%)
Alignment : Aligned on interleaves
Interleave, duration : 42 ms (1.00 video frame)
Interleave, preload duration : 504 ms
Writing library : LAME3.99r
Encoding settings : -m s -V 4 -q 2 -lowpass 17 -b 128




   Похожие торренты   Торрент   Размер 
В этой теме нет новых непрочитанных сообщений. Хоппити едет в город / Приключения жука Хоппити / Hoppity Goes to Town / Mr. Bug Goes to Town (1941) DVDRip от KinoRay & Sheikn | P2, A

25 | 3

1.1 ГБ

В этой теме нет новых непрочитанных сообщений. Military Town (M-Town) - Смысл остаться (2012) МР3

0 | 2

43.38 МБ

В этой теме нет новых непрочитанных сообщений. Шумный город / Boom Town (1940) DVDRip

0 | 1

1.48 ГБ

В этой теме нет новых непрочитанных сообщений. Чумной город / Plague Town (2008) DVDRip | P

177 | 26

1.37 ГБ

В этой теме нет новых непрочитанных сообщений. Город призраков / Ghost Town (2007) DVDRip

75 | 11

1.37 ГБ

В этой теме нет новых непрочитанных сообщений. Город призраков / Ghost Town (2008) DVDRip

0 | 11

806.97 МБ

В этой теме нет новых непрочитанных сообщений. Город и деревня / Town & Country (2001) DVDRip | P

212 | 13

1.42 ГБ




Вы не можете начинать темы
Вы не можете отвечать на сообщения
Вы не можете редактировать свои сообщения
Вы не можете удалять свои сообщения
Вы не можете добавлять вложения

Перейти:  
Для Мосгорсуда, Роскомнадзора и рекламодателей: mosgorsud-torrent[собачка]yandex.ru
 Вход
ppkBB3cker v.2 © 2008-2014 @ PPK
[ Time : 0.036s | 15 Queries | GZIP : Off ]

Торрент трекер RUTOR.IN, Не можете зайти на rutor.org? Какой новый адрес рутор? Какое зеркало рутор? Не работает rutor.org и зеркала? Тогда наш торрент специально для вас. Rutor.in неофициальное зеркало rutor. В случае если у Вас заблокирован rutor или вдруг Вы не можете на него зайти, то Вы без труда сможете скачать бесплатно и без рекламы последние новинки кино, игр, сериалов и прочего у нас, на Rutor.in. Не нужно использовать прокси, чтобы зайти на рутор, достаточно воспользоваться нашим ресурсом. Все новые фильмы, игры, сериалы, книги и музыка за 2013 и 2014 годы через торрент бесплатно. Скачивайте фильмы в хорошем качестве, игры для пк, xbox, playstation без регистрации. У нас вы найдете новые Зарубежные сериалы и Русские сериалы 2013, 2014, 2015 годов. Оставайтесь с нами, качайте любимые фильмы, игры, сериалы, книги и музыку.