img image001 image001 image001 image001 image001 image001 image001 image001 image001 image001 image001 image001 image001 image001 image001

Planets Sun Sun Sun
Статистика раздачи
Автор: Снежана | Размер: 744.77 МБ | Добавлен: 27 июл 2013
Раздают: 53    Качают: 7
Скачать торрент
Скачать торрент
Описание торрента

СообщениеДобавлено: 27 июл 2013 

#77

Страна: США
Жанр: мультфильм, приключения, семейный
Продолжительность: 01:29:21
Год выпуска: 2000
Перевод: Профессиональный (дублированный) по заказу "Первого канала".
Субтитры: нет

Режиссеры: Бибо Бержерон, Уилл Финн, Дон Пол, Дэвид Силверман, Джеффри Катценберг / Bibo Bergeron, Will Finn, Don Paul, David Silverman, Jeffrey Katzenberg

Роли озвучивали: Кевин Клайн, Кеннет Брэна, Рози Перес, Арманд Ассанте, Эдвард Джеймс Олмос, Джим Каммингс, Фрэнк Уэлкер, Тобин Белл...
Роли дублировали: Александр Комлев, Дмитрий Филимонов, Сергей Чекан, Виктор Петров, Александр Груздев

Описание: Тулио и Мигель, герои этой полнометражной мультипликационной картины, предпочитают не зарабатывать деньги тяжелым трудом. Эти два отпетых мошенника обожают, когда золотишко само идет к ним в руки. Случилось так, что этим проходимцам крупно повезло.
Им посчастливилось найти таинственную карту, на которой обозначен величественный Город Золота, мифический Эльдорадо. Вместе со знаменитым конкистадором Эрнаном Кортесом приятели отправляются в рискованное путешествием за сокровищами к берегам далекой Америки.

Качество: DVDRip
Формат: AVI
Видео кодек: XviD
Аудио кодек: MP3
Видео: 656x368 (1.78:1), 23.976 fps, XviD build 50 ~1027 kbps avg, 0.18 bit/pixel
Аудио: 48 kHz, MPEG Layer 3, 2 ch, ~128.00 kbps avg




D:EL_DORADO_DUB_745 by dexter lex.avi
General
Complete name : D:EL_DORADO_DUB_745 by dexter lex.avi
Format : AVI
Format/Info : Audio Video Interleave
File size : 745 MiB
Duration : 1h 29mn
Overall bit rate : 1 164 Kbps
Writing application : VirtualDubMod 1.5.10.3 | www.virtualdub-fr.org || (build 2550/release)
Writing library : VirtualDubMod build 2550/release
Video #0
ID : 0
Format : MPEG-4 Visual
Format profile : Advanced Simple@L5
Format settings, BVOP : 1
Format settings, QPel : No
Format settings, GMC : No warppoints
Format settings, Matrix : Custom
Codec ID : XVID
Codec ID/Hint : XviD
Duration : 1h 29mn
Bit rate : 1 027 Kbps
Width : 656 pixels
Height : 368 pixels
Display aspect ratio : 1.78:1
Frame rate : 23.976 fps
Color space : YUV
Chroma subsampling : 4:2:0
Bit depth : 8 bits
Scan type : Progressive
Compression mode : Lossy
Bits/(Pixel*Frame) : 0.177
Stream size : 657 MiB (88%)
Writing library : XviD 1.2.1 (UTC 2008-12-04)
Audio #1
ID : 1
Format : MPEG Audio
Format version : Version 1
Format profile : Layer 3
Codec ID : 55
Codec ID/Hint : MP3
Duration : 1h 29mn
Bit rate mode : Constant
Bit rate : 128 Kbps
Channel(s) : 2 channels
Sampling rate : 48.0 KHz
Compression mode : Lossy
Stream size : 81.9 MiB (11%)
Alignment : Aligned on interleaves
Interleave, duration : 42 ms (1.00 video frame)
Interleave, preload duration : 504 ms
Writing library : LAME3.99r
Encoding settings : -m s -V 4 -q 2 -lowpass 17 -b 128


http://multi-up.com/857054



   Похожие торренты   Торрент   Размер 
В этой теме нет новых непрочитанных сообщений. Дорога на Эльдорадо / The Road to El Dorado (2000) DVDRip

96 | 12

700.5 МБ

В этой теме нет новых непрочитанных сообщений. Дорога на Эльдорадо / The Road to El Dorado (2000) DVDRip | D

231 | 22

1.46 ГБ

В этой теме нет новых непрочитанных сообщений. Дорога на Эльдорадо / The Road to El Dorado (2000) WEB-DL 1080p | D

147 | 25

6.54 ГБ

В этой теме нет новых непрочитанных сообщений. Дорога на Эльдорадо / The Road to El Dorado (2000) HDDVDRip (720p)

68 | 12

4.11 ГБ

В этой теме нет новых непрочитанных сообщений. Эльдорадо / El Dorado (1988) DVDRip от ExKinoRay

190 | 38

2.06 ГБ

В этой теме нет новых непрочитанных сообщений. Эльдорадо / El Dorado (1966) DVDRip от Generalfilm

3 | 2

2.06 ГБ

В этой теме нет новых непрочитанных сообщений. Эльдорадо / El Dorado [2 части из 2] (2010) DVDRip - LOOK - Firebit

38 | 21

2.78 ГБ




Вы не можете начинать темы
Вы не можете отвечать на сообщения
Вы не можете редактировать свои сообщения
Вы не можете удалять свои сообщения
Вы не можете добавлять вложения

Перейти:  
Для Мосгорсуда, Роскомнадзора и рекламодателей: mosgorsud-torrent[собачка]yandex.ru
 Вход
ppkBB3cker v.2 © 2008-2014 @ PPK
[ Time : 0.028s | 16 Queries | GZIP : On ]

Торрент трекер RUTOR.IN, Не можете зайти на rutor.org? Какой новый адрес рутор? Какое зеркало рутор? Не работает rutor.org и зеркала? Тогда наш торрент специально для вас. Rutor.in неофициальное зеркало rutor. В случае если у Вас заблокирован rutor или вдруг Вы не можете на него зайти, то Вы без труда сможете скачать бесплатно и без рекламы последние новинки кино, игр, сериалов и прочего у нас, на Rutor.in. Не нужно использовать прокси, чтобы зайти на рутор, достаточно воспользоваться нашим ресурсом. Все новые фильмы, игры, сериалы, книги и музыка за 2013 и 2014 годы через торрент бесплатно. Скачивайте фильмы в хорошем качестве, игры для пк, xbox, playstation без регистрации. У нас вы найдете новые Зарубежные сериалы и Русские сериалы 2013, 2014, 2015 годов. Оставайтесь с нами, качайте любимые фильмы, игры, сериалы, книги и музыку.