img image001 image001 image001 image001 image001 image001 image001 image001 image001 image001 image001 image001 image001 image001 image001

Planets Sun Sun Sun
Статистика раздачи
Автор: Снежана | Размер: 743.72 МБ | Добавлен: 27 июл 2013
Раздают: 116    Качают: 23
Скачать торрент
Скачать торрент
Описание торрента

СообщениеДобавлено: 27 июл 2013 

#77

Страна: США
Жанр: мультфильм, приключения, семейный
Год выпуска: 2002
Продолжительность: 01:15:24
Перевод: Профессиональный (многоголосый закадровый) (Universal Pictures Rus)
Субтиры: нет

Режиссер: Фил Вайнштейн / Phil Weinstein

Роли озвучивали: Морис ЛаМарш, Джоди Бенсон, Лэйси Чэберт, Дэвид Кэрредин, Марк Хэмилл, Чарльз Флайшер, Питер МакНикол, Роб Полсен, Николетт Литтл, Melanie Spore и др.

Описание: Продолжение приключений легендарного пса Балто. Случилось так, что Балто стал отцом. Он сделал все возможное, чтобы пристроить всех своих отпрысков в хорошие семьи. Но одна девочка, по имени Алу, вдруг почувствовала, что никогда не сможет быть похожей на своих братьев и сестер. После того, как она встретила в лесу охотника, Алу ощутила пробуждение загадочной природы волка внутри себя. Кто же она — волк или собака? Чтобы найти ответ на этот вопрос, Алу отправляется в путешествие по бескрайним просторам Аляски, в котором ее будет сопровождать любящий отец Балто.

Качество: HDTVRip
Контейнер: AVI
Видео кодек: XviD
Аудио кодек: MP3
Видео: 640x480 (1.33:1), 23.976 fps, XviD build 50 ~1242 kbps avg, 0.17 bit/pixel
Аудио: 48 kHz, MPEG Layer 3, 2 ch, ~128.00 kbps avg

Раздача от:


D:Balto.II.2002.HDTVRip.[YTN] by dexter lex.avi
General
Complete name : D:Balto.II.2002.HDTVRip.[YTN] by dexter lex.avi
Format : AVI
Format/Info : Audio Video Interleave
File size : 744 MiB
Duration : 1h 15mn
Overall bit rate : 1 379 Kbps
Writing application : VirtualDubMod 1.5.10.3 | www.virtualdub-fr.org || (build 2550/release)
Writing library : VirtualDubMod build 2550/release
Video #0
ID : 0
Format : MPEG-4 Visual
Format profile : Advanced Simple@L5
Format settings, BVOP : 1
Format settings, QPel : No
Format settings, GMC : No warppoints
Format settings, Matrix : Custom
Codec ID : XVID
Codec ID/Hint : XviD
Duration : 1h 15mn
Bit rate : 1 242 Kbps
Width : 640 pixels
Height : 480 pixels
Display aspect ratio : 1.33:1
Frame rate : 23.976 fps
Color space : YUV
Chroma subsampling : 4:2:0
Bit depth : 8 bits
Scan type : Progressive
Compression mode : Lossy
Bits/(Pixel*Frame) : 0.169
Stream size : 670 MiB (90%)
Writing library : XviD 1.2.1 (UTC 2008-12-04)
Audio #1
ID : 1
Format : MPEG Audio
Format version : Version 1
Format profile : Layer 3
Codec ID : 55
Codec ID/Hint : MP3
Duration : 1h 15mn
Bit rate mode : Constant
Bit rate : 128 Kbps
Channel(s) : 2 channels
Sampling rate : 48.0 KHz
Compression mode : Lossy
Stream size : 69.0 MiB (9%)
Alignment : Aligned on interleaves
Interleave, duration : 42 ms (1.00 video frame)
Interleave, preload duration : 504 ms
Writing library : LAME3.99r
Encoding settings : -m s -V 4 -q 2 -lowpass 17 -b 128




   Похожие торренты   Торрент   Размер 
В этой теме нет новых непрочитанных сообщений. Балто 2: В поисках волка / Balto: Wolf Quest (2002) HDTVRip

67 | 4

1.38 ГБ

В этой теме нет новых непрочитанных сообщений. Балто 2: В поисках волка / Balto: Wolf Quest (2002) HDTVRip от Freeisland

45 | 11

4.37 ГБ

В этой теме нет новых непрочитанных сообщений. Балто 2: В поисках волка / Balto: Wolf Quest (2002) DVDRip от ExKinoRay

66 | 3

1.09 ГБ

В этой теме нет новых непрочитанных сообщений. Балто / Balto (1995) HDTVRip от Youtracker

175 | 27

744.88 МБ

В этой теме нет новых непрочитанных сообщений. Балто 3: Крылья перемен / Balto III: Wings of Change (2004) HDTVRip от Youtracker | D

218 | 12

744.7 МБ

В этой теме нет новых непрочитанных сообщений. Балто / Balto (1995) HDTVRip от Freeisland

120 | 13

4.37 ГБ

В этой теме нет новых непрочитанных сообщений. Балто / Balto (1995) HDTVRip от Scarabey | P

243 | 17

1.41 ГБ




Вы не можете начинать темы
Вы не можете отвечать на сообщения
Вы не можете редактировать свои сообщения
Вы не можете удалять свои сообщения
Вы не можете добавлять вложения

Перейти:  
Для Мосгорсуда, Роскомнадзора и рекламодателей: mosgorsud-torrent[собачка]yandex.ru
 Вход
ppkBB3cker v.2 © 2008-2014 @ PPK
[ Time : 0.571s | 14 Queries | GZIP : Off ]

Торрент трекер RUTOR.IN, Не можете зайти на rutor.org? Какой новый адрес рутор? Какое зеркало рутор? Не работает rutor.org и зеркала? Тогда наш торрент специально для вас. Rutor.in неофициальное зеркало rutor. В случае если у Вас заблокирован rutor или вдруг Вы не можете на него зайти, то Вы без труда сможете скачать бесплатно и без рекламы последние новинки кино, игр, сериалов и прочего у нас, на Rutor.in. Не нужно использовать прокси, чтобы зайти на рутор, достаточно воспользоваться нашим ресурсом. Все новые фильмы, игры, сериалы, книги и музыка за 2013 и 2014 годы через торрент бесплатно. Скачивайте фильмы в хорошем качестве, игры для пк, xbox, playstation без регистрации. У нас вы найдете новые Зарубежные сериалы и Русские сериалы 2013, 2014, 2015 годов. Оставайтесь с нами, качайте любимые фильмы, игры, сериалы, книги и музыку.