img image001 image001 image001 image001 image001 image001 image001 image001 image001 image001 image001 image001 image001 image001 image001

Planets Sun Sun Sun
Статистика раздачи
Автор: Снежана | Размер: 744.7 МБ | Добавлен: 27 июл 2013
Раздают: 218    Качают: 12
Скачать торрент
Скачать торрент
Описание торрента

СообщениеДобавлено: 27 июл 2013 

#77

Страна: США
Жанр: мультфильм, приключения, семейный
Год выпуска: 2004
Продолжительность: 01:18:08
Перевод: Профессиональный дублированный (R5)
Субтиры: нет

Режиссер: Фил Вайнштейн / Phil Weinstein

Роли озвучивали: Шон Эстин, Джоди Бенсон, Кит Кэрредин, Билл Фагербакки, Чарльз Флайшер, Чарити Джеймс, Морис ЛаМарш, Кэти Нэджими, Дэвид Пэймер, Кевин Шон и др.

Роли дублировали: Михаил Тихонов, Андрей Симанов, Наталья Казначеева, Светлана Старикова, Игорь Тарадайкин и др.

Описание: Дело в том, что сани, которые служили универсальным средством передвижения на севере многие века, вытесняет странное крылатое устройство, которое легко может оставить упряжных собак «без работы». Ведь наступили новые времена! добраться до самых труднодоступных уголков на карте теперь можно при помощи самолёта.
Однако это совсем не по вкусу нашему старому знакомому Балто! Неунывающий герой решает устроить гонку-соревнование между упряжкой бывалых псов и опытным летчиком по имени Дьюк. Кто быстрей доставит почту: собаки или одномоторный биплан?
Ликующие псы добираются до финиша первыми: они смогли доказать свое превосходство над железной летающей птицей. Но Балто сразу понял: что-то случилось с Дюком и его самолетом! В компании с Маком и Люком Балто отправляется в рискованную спасательную экспедицию на помощь пропавшему летчику!

Качество: HDTVRip
Контейнер: AVI
Видео кодек: XviD
Аудио кодек: MP3
Видео: 640x480 (1.33:1), 23.976 fps, XviD build 50 ~1195 kbps avg, 0.16 bit/pixel
Аудио: 48 kHz, MPEG Layer 3, 2 ch, ~128.00 kbps avg

Раздача от:


D:BaltoIII.2004.HDTVRip [YTN] by dexter lex.avi
General
Complete name : D:BaltoIII.2004.HDTVRip [YTN] by dexter lex.avi
Format : AVI
Format/Info : Audio Video Interleave
File size : 745 MiB
Duration : 1h 18mn
Overall bit rate : 1 332 Kbps
Writing application : VirtualDubMod 1.5.10.3 | www.virtualdub-fr.org || (build 2550/release)
Writing library : VirtualDubMod build 2550/release
Video #0
ID : 0
Format : MPEG-4 Visual
Format profile : Advanced Simple@L5
Format settings, BVOP : 1
Format settings, QPel : No
Format settings, GMC : No warppoints
Format settings, Matrix : Custom
Codec ID : XVID
Codec ID/Hint : XviD
Duration : 1h 18mn
Bit rate : 1 195 Kbps
Width : 640 pixels
Height : 480 pixels
Display aspect ratio : 1.33:1
Frame rate : 23.976 fps
Color space : YUV
Chroma subsampling : 4:2:0
Bit depth : 8 bits
Scan type : Progressive
Compression mode : Lossy
Bits/(Pixel*Frame) : 0.162
Stream size : 668 MiB (90%)
Writing library : XviD 1.2.1 (UTC 2008-12-04)
Audio #1
ID : 1
Format : MPEG Audio
Format version : Version 1
Format profile : Layer 3
Codec ID : 55
Codec ID/Hint : MP3
Duration : 1h 18mn
Bit rate mode : Constant
Bit rate : 128 Kbps
Channel(s) : 2 channels
Sampling rate : 48.0 KHz
Compression mode : Lossy
Stream size : 71.5 MiB (10%)
Alignment : Aligned on interleaves
Interleave, duration : 42 ms (1.00 video frame)
Interleave, preload duration : 504 ms
Writing library : LAME3.99r
Encoding settings : -m s -V 4 -q 2 -lowpass 17 -b 128

http://multi-up.com/858117



   Похожие торренты   Торрент   Размер 
В этой теме нет новых непрочитанных сообщений. Балто 3: Крылья перемен / Balto III: Wings of Change (2004) HDTVRip от Freeisland

107 | 8

4.38 ГБ

В этой теме нет новых непрочитанных сообщений. Балто 3: Крылья перемен / Balto III: Wings of Change (2004) DVDRip от ExKinoRay

186 | 10

1.09 ГБ

В этой теме нет новых непрочитанных сообщений. Балто / Balto (1995) HDTVRip от Youtracker

175 | 27

744.88 МБ

В этой теме нет новых непрочитанных сообщений. Балто 2: В поисках волка / Balto: Wolf Quest (2002) HDTVRip от Youtracker | P

116 | 23

743.72 МБ

В этой теме нет новых непрочитанных сообщений. Балто / Balto (1995-2004) DVDRip от MediaClub | КПК

123 | 21

1018.89 МБ

В этой теме нет новых непрочитанных сообщений. Балто: Трилогия / Balto: Trilogy (1995-2004 ) DVDRip

199 | 41

4.1 ГБ

В этой теме нет новых непрочитанных сообщений. Балто / Balto (1995) HDTVRip от Freeisland

120 | 13

4.37 ГБ




Вы не можете начинать темы
Вы не можете отвечать на сообщения
Вы не можете редактировать свои сообщения
Вы не можете удалять свои сообщения
Вы не можете добавлять вложения

Перейти:  
Для Мосгорсуда, Роскомнадзора и рекламодателей: mosgorsud-torrent[собачка]yandex.ru
 Вход
ppkBB3cker v.2 © 2008-2014 @ PPK
[ Time : 0.030s | 14 Queries | GZIP : Off ]

Торрент трекер RUTOR.IN, Не можете зайти на rutor.org? Какой новый адрес рутор? Какое зеркало рутор? Не работает rutor.org и зеркала? Тогда наш торрент специально для вас. Rutor.in неофициальное зеркало rutor. В случае если у Вас заблокирован rutor или вдруг Вы не можете на него зайти, то Вы без труда сможете скачать бесплатно и без рекламы последние новинки кино, игр, сериалов и прочего у нас, на Rutor.in. Не нужно использовать прокси, чтобы зайти на рутор, достаточно воспользоваться нашим ресурсом. Все новые фильмы, игры, сериалы, книги и музыка за 2013 и 2014 годы через торрент бесплатно. Скачивайте фильмы в хорошем качестве, игры для пк, xbox, playstation без регистрации. У нас вы найдете новые Зарубежные сериалы и Русские сериалы 2013, 2014, 2015 годов. Оставайтесь с нами, качайте любимые фильмы, игры, сериалы, книги и музыку.