img image001 image001 image001 image001 image001 image001 image001 image001 image001 image001 image001 image001 image001 image001 image001

Planets Sun Sun Sun
Статистика раздачи
Автор: Снежана | Размер: 743.92 МБ | Добавлен: 27 июл 2013
Раздают: 143    Качают: 3
Скачать торрент
Скачать торрент
Описание торрента

СообщениеДобавлено: 27 июл 2013 

#77


Год выпуска: 1989
Страна: США, Великобритания, Ирландия
Жанр: мультфильм, мюзикл, фэнтези, боевик, драма, комедия, приключения, семейный
Продолжительность: 01:24:35
Перевод: Профессиональный (полное дублирование)
Субтиры: нет

Режиссер: Дон Блат / Don Bluth, Гари Голдман / Gary Goldman, Дэн Куенстер / Dan Kuenster

В ролях: Берт Рейнолдс (Charlie B. Barkin, озвучка), Алексей Борзунов, Дом ДеЛуис (Itchy Itchiford, озвучка), Александр Рыжков, Джудит Барси (Anne-Marie, озвучка), Мелба Мур (Whippet Angel, озвучка), Дэрил Гилли (Dog Caster, озвучка), Кэнди Дивайн (Vera, озвучка), Чарльз Нельсон Рейли (Killer, озвучка), Вик Тейбэк (Carface, озвучка), Роб Фуллер (Harold, озвучка), Ирлин Кэри (Kate, озвучка)

Роли дублировали: Алексей Борзунов (Charlie B. Barkin), Александр Рыжков (Itchy Itchiford)

Описание: Пес по имени Чарли Баркин, занимавшийся азартными играми, погибает от лап питбуля Тупорыла и оказывается в раю - просто потому, что все псы обязательно попадают в рай. Однако Чарли так хочет рассчитаться со своим убийцей, что возвращается на Землю.
Вместе со своим верным другом Чесуном Чарли раскрывает главный секрет преуспевания Тупорыла. Тупорыл использует необыкновенные способности маленькой девочки-сироты по имени Анни-Мари, которая умеет разговаривать с животными и угадывает результаты крысиных бегов и лошадиных скачек. Чарли похищает девочку, и они становятся лучшими друзьями.
Им предстоит пережить множество невероятных приключений, прежде чем Чарли сможет, завершив свои земные дела, со спокойной душой отправиться обратно в рай…

Качество: HDRip
Формат: AVI
Видео кодек: XviD
Аудио кодек: MP3
Видео: 656x352 (1.86:1), 23.976 fps, XviD build 50 ~1092 kbps avg, 0.20 bit/pixel
Аудио: 48 kHz, MPEG Layer 3, 2 ch, ~128.00 kbps avg

Раздача от:


D:Vse.psi.popadajut.v.raj.1989.HDRip [YTN] by dexter lex.avi
General
Complete name : D:Vse.psi.popadajut.v.raj.1989.HDRip [YTN] by dexter lex.avi
Format : AVI
Format/Info : Audio Video Interleave
File size : 744 MiB
Duration : 1h 24mn
Overall bit rate : 1 230 Kbps
Writing application : VirtualDubMod 1.5.10.3 | www.virtualdub-fr.org || (build 2550/release)
Writing library : VirtualDubMod build 2550/release
Video #0
ID : 0
Format : MPEG-4 Visual
Format profile : Advanced Simple@L5
Format settings, BVOP : 1
Format settings, QPel : No
Format settings, GMC : No warppoints
Format settings, Matrix : Custom
Codec ID : XVID
Codec ID/Hint : XviD
Duration : 1h 24mn
Bit rate : 1 092 Kbps
Width : 656 pixels
Height : 352 pixels
Display aspect ratio : 1.86:1
Frame rate : 23.976 fps
Color space : YUV
Chroma subsampling : 4:2:0
Bit depth : 8 bits
Scan type : Progressive
Compression mode : Lossy
Bits/(Pixel*Frame) : 0.197
Stream size : 661 MiB (89%)
Writing library : XviD 1.2.1 (UTC 2008-12-04)
Audio #1
ID : 1
Format : MPEG Audio
Format version : Version 1
Format profile : Layer 3
Codec ID : 55
Codec ID/Hint : MP3
Duration : 1h 24mn
Bit rate mode : Constant
Bit rate : 128 Kbps
Channel(s) : 2 channels
Sampling rate : 48.0 KHz
Compression mode : Lossy
Stream size : 77.4 MiB (10%)
Alignment : Aligned on interleaves
Interleave, duration : 42 ms (1.00 video frame)
Interleave, preload duration : 504 ms
Writing library : LAME3.99r
Encoding settings : -m s -V 4 -q 2 -lowpass 17 -b 128




   Похожие торренты   Торрент   Размер 
В этой теме нет новых непрочитанных сообщений. Все псы попадают в рай / All Dogs Go To Heaven (1989) HDTVRip

2 | 2

4.83 ГБ

В этой теме нет новых непрочитанных сообщений. Все псы попадают в рай / All Dogs Go to Heaven (1989) BDRemux

2 | 3

20.19 ГБ

В этой теме нет новых непрочитанных сообщений. Все псы попадают в рай / All Dogs Go to Heaven (1989) BDRip от HQCLUB

98 | 6

1.45 ГБ

В этой теме нет новых непрочитанных сообщений. Все псы попадают в рай: Дилогия / All Dogs Go To Heaven (1989-1996) AAC- DVDRip

12 | 31

2.41 ГБ

В этой теме нет новых непрочитанных сообщений. Все псы попадают в рай 2 / All Dogs Go to Heaven 2 (1996) BDRip от Youtracker

31 | 5

745.71 МБ

В этой теме нет новых непрочитанных сообщений. Все псы попадают в рай: Дилогия / All Dogs Go To Heaven: Dilogy (1989-1996) BDRip 1080p

2 | 4

8.74 ГБ

В этой теме нет новых непрочитанных сообщений. Все Псы Попадают в Рай / All Dogs go to Heaven (Дон Блат, Гарри Олдман) [1989, Фэнтези, комедия, мюзикл, семейный, BDRip 1080p] DUB / Мультфильмы (HD/BD Video)

29 | 4

5.96 ГБ




Вы не можете начинать темы
Вы не можете отвечать на сообщения
Вы не можете редактировать свои сообщения
Вы не можете удалять свои сообщения
Вы не можете добавлять вложения

Перейти:  
Для Мосгорсуда, Роскомнадзора и рекламодателей: mosgorsud-torrent[собачка]yandex.ru
 Вход
ppkBB3cker v.2 © 2008-2014 @ PPK
[ Time : 0.065s | 16 Queries | GZIP : Off ]

Торрент трекер RUTOR.IN, Не можете зайти на rutor.org? Какой новый адрес рутор? Какое зеркало рутор? Не работает rutor.org и зеркала? Тогда наш торрент специально для вас. Rutor.in неофициальное зеркало rutor. В случае если у Вас заблокирован rutor или вдруг Вы не можете на него зайти, то Вы без труда сможете скачать бесплатно и без рекламы последние новинки кино, игр, сериалов и прочего у нас, на Rutor.in. Не нужно использовать прокси, чтобы зайти на рутор, достаточно воспользоваться нашим ресурсом. Все новые фильмы, игры, сериалы, книги и музыка за 2013 и 2014 годы через торрент бесплатно. Скачивайте фильмы в хорошем качестве, игры для пк, xbox, playstation без регистрации. У нас вы найдете новые Зарубежные сериалы и Русские сериалы 2013, 2014, 2015 годов. Оставайтесь с нами, качайте любимые фильмы, игры, сериалы, книги и музыку.
cron