img image001 image001 image001 image001 image001 image001 image001 image001 image001 image001 image001 image001 image001 image001 image001

Planets Sun Sun Sun
Статистика раздачи
Автор: Снежана | Размер: 2 ГБ | Добавлен: 27 июл 2013
Раздают: 23    Качают: 9
Скачать торрент
Скачать торрент
Описание торрента

СообщениеДобавлено: 27 июл 2013 

#77


Информация о фильме
Название: Горбун из Нотр Дама
Оригинальное название: The Hunchback of Notre Dame
Год выхода: 1996
Жанр: мультфильм, мюзикл, семейный, детский
Режиссер: Гари Труздейл, Кирк Уайз
В ролях: Джейсон Александр, Мэри Кэй Бергман, Кори Бертон, Джим Каммингс, Билл Фагербакк, Том Халс, Тони Джей, Пол Кандел, Чарльз Кимбро, Кевин Клайн, Хайди Молленхауер, Деми Мур, Патрик Пинни, Гари Труздейл, Дэвид Огден Стайерз, Фрэнк Уэлкер, Мэри Уикс, Джейн Уизерс

О фильме:
Сын убитой цыганки, Квазимодо, что в переводе означает "чудовище", знаменитый горбун Собора Парижской Богоматери, - персонаж одноименного романа Виктора Гюго и герой этого замечательного мультипликационного фильма с множеством хороших песен и музыки. Жестокий судья убил его мать и воспитал в уверенности, что именно он и есть благодетель добросердечного уродца, но в детских фильмах зло обязательно должно быть побеждено, и этому помогают красивая и бесстрашная цыганка Эсмеральда и новый начальник стражи, честный и простодушный капитан Фибис.


Страна: США
Студия: Walt Disney Pictures, Walt Disney Feature Animation
Продолжительность: 01:30:58
Перевод: Дублированный, профессиональный (многоголосый закадровый), авторский (одноголосый закадровый)

Файл
Кодек: h.264
Качество: BDRip-AVC
Видео: 1810 Кбит/с, 1024x576, 23.976 кадр/c

Звук:
• №1: Русский (AC3, 2 ch, 192 Кбит/с) Дублированный
• №2: Русский (AC3, 6 ch, 384 Кбит/с) Профессиональный многоголосый
• №3: Русский (AC3, 6 ch, 384 Кбит/с) Авторский одноголосый [Петр Гланц]
• №4: Английский (AC3, 6 ch, 384 Кбит/с)

Субтитры: Русские, английские

Полное имя : Gorbun.iz.Notr.Dama.1996.x264.BDRip.(AVC).0ptimus.mkv
Формат : Matroska
Версия формата : Version 4 / Version 2
Размер файла : 2,00 Гбайт
Продолжительность : 1 ч. 30 м.
Общий поток : 3155 Кбит/сек
Название фильма : Горбун из Нотр Дама | The Hunchback of Notre Dame [1996] -=BDRip (AVC) by 0ptimus=-
Дата кодирования : UTC 2013-04-07 18:26:06
Программа кодирования : mkvmerge v6.1.0 ('Old Devil') built on Mar 2 2013 14:32:37
Библиотека кодирования : libebml v1.3.0 + libmatroska v1.4.0

Видео
Идентификатор : 1
Формат : AVC
Формат/Информация : Advanced Video Codec
Профиль формата : High@L4.1
Параметр CABAC формата : Да
Параметр ReFrames формата : 11 кадров
Идентификатор кодека : V_MPEG4/ISO/AVC
Продолжительность : 1 ч. 30 м.
Битрейт : 1810 Кбит/сек
Ширина : 1024 пикселя
Высота : 576 пикселей
Соотношение сторон : 16:9
Частота кадров : 23,976 кадра/сек
Цветовое пространство : YUV
Субдискретизация насыщенности : 4:2:0
Битовая глубина : 8 бит
Тип развёртки : Прогрессивная
Бит/(Пиксели*Кадры) : 0.128
Размер потока : 1,11 Гбайт (55%)
Заголовок : Rip by 0ptimus
Библиотека кодирования : x264 core 130 r2273 b3065e6
Настройки программы : cabac=1 / ref=11 / deblock=1:-3:-3 / analyse=0x3:0x113 / me=umh / subme=11 / psy=1 / psy_rd=1.00:0.20 / mixed_ref=1 / me_range=48 / chroma_me=1 / trellis=2 / 8x8dct=1 / cqm=0 / deadzone=21,11 / fast_pskip=0 / chroma_qp_offset=-3 / threads=4 / lookahead_threads=1 / sliced_threads=0 / nr=0 / decimate=0 / interlaced=0 / bluray_compat=0 / constrained_intra=0 / bframes=9 / b_pyramid=2 / b_adapt=2 / b_bias=0 / direct=3 / weightb=1 / open_gop=0 / weightp=2 / keyint=240 / keyint_min=23 / scenecut=40 / intra_refresh=0 / rc_lookahead=40 / rc=2pass / mbtree=0 / bitrate=1810 / ratetol=1.0 / qcomp=0.60 / qpmin=0 / qpmax=69 / qpstep=4 / cplxblur=20.0 / qblur=0.5 / vbv_maxrate=50000 / vbv_bufsize=50000 / nal_hrd=none / ip_ratio=1.40 / pb_ratio=1.30 / aq=1:1.00
Язык : English

Аудио #1
Идентификатор : 2
Формат : AC-3
Формат/Информация : Audio Coding 3
Расширение режима : CM (complete main)
Идентификатор кодека : A_AC3
Продолжительность : 1 ч. 30 м.
Вид битрейта : Постоянный
Битрейт : 192 Кбит/сек
Каналы : 2 канала
Расположение каналов : Front: L R
Частота : 48,0 КГц
Битовая глубина : 16 бит
Метод сжатия : С потерями
Размер потока : 125 Мбайт (6%)
Заголовок : Дублированный
Язык : Russian

Аудио #2
Идентификатор : 3
Формат : AC-3
Формат/Информация : Audio Coding 3
Расширение режима : CM (complete main)
Идентификатор кодека : A_AC3
Продолжительность : 1 ч. 30 м.
Вид битрейта : Постоянный
Битрейт : 384 Кбит/сек
Каналы : 6 каналов
Расположение каналов : Front: L C R, Side: L R, LFE
Частота : 48,0 КГц
Битовая глубина : 16 бит
Метод сжатия : С потерями
Размер потока : 250 Мбайт (12%)
Заголовок : Многоголосый закадровый
Язык : Russian

Аудио #3
Идентификатор : 4
Формат : AC-3
Формат/Информация : Audio Coding 3
Расширение режима : CM (complete main)
Идентификатор кодека : A_AC3
Продолжительность : 1 ч. 30 м.
Вид битрейта : Постоянный
Битрейт : 384 Кбит/сек
Каналы : 6 каналов
Расположение каналов : Front: L C R, Side: L R, LFE
Частота : 48,0 КГц
Битовая глубина : 16 бит
Метод сжатия : С потерями
Размер потока : 250 Мбайт (12%)
Заголовок : Авторский [Петр Гланц]
Язык : Russian

Аудио #4
Идентификатор : 5
Формат : AC-3
Формат/Информация : Audio Coding 3
Расширение режима : CM (complete main)
Идентификатор кодека : A_AC3
Продолжительность : 1 ч. 30 м.
Вид битрейта : Постоянный
Битрейт : 384 Кбит/сек
Каналы : 6 каналов
Расположение каналов : Front: L C R, Side: L R, LFE
Частота : 48,0 КГц
Битовая глубина : 16 бит
Метод сжатия : С потерями
Размер потока : 250 Мбайт (12%)
Язык : English

Текст #1
Идентификатор : 6
Формат : UTF-8
Идентификатор кодека : S_TEXT/UTF8
Идентификатор кодека/Информация : UTF-8 Plain Text
Язык : Russian

Текст #2
Идентификатор : 7
Формат : UTF-8
Идентификатор кодека : S_TEXT/UTF8
Идентификатор кодека/Информация : UTF-8 Plain Text
Язык : English

Текст #3
Идентификатор : 8
Формат : UTF-8
Идентификатор кодека : S_TEXT/UTF8
Идентификатор кодека/Информация : UTF-8 Plain Text
Язык : English

Меню
00:00:00.000 : :"the Bells of Notre Dame"/Main Title
00:06:28.221 : :Will Today Be the Day?
00:10:31.338 : :Frollo Arrives
00:12:05.098 : :Frollo's Warning About the World "Out There"
00:13:46.325 : :Quasimodo Longs to Be "Out There"
00:16:38.955 : :Phoebus' Return to Paris
00:20:48.997 : :The Festival of Fools ("Topsy Turvy")
00:26:07.898 : :The Crowd Turns on Their King
00:27:27.020 : :Esmeralda Comes to Quasimodo's Aid
00:31:28.511 : :Esmeralda Seeks Revenge in the Cathedral
00:34:00.830 : :Frollo's Threat
00:35:36.092 : :"God Help the Outcasts"
00:38:35.313 : :Esmeralda Follows Quasimodo Into His World
00:42:17.743 : :Quasimodo Helps Esmeralda Escape
00:44:42.096 : :Phoebus Comes Looking for Esmeralda
00:45:34.231 : :Quasimodo Dreams of "Heaven's Light"
00:47:52.744 : :"Hellfire"
00:52:47.747 : :Find the Gypsy Girl
00:56:11.993 : :Phoebus Defies Frollo
00:59:11.671 : :One of a Kind ("a Guy Like You")
01:01:40.571 : :The Fugitive ("Heaven's Light" - Reprise)
01:07:44.727 : :Another Visit From Frollo
01:11:24.613 : :Following the Map
01:13:00.542 : :"the Court of Miracles"
01:14:34.803 : :A Public Execution
01:17:52.376 : :Quasimodo Rescues Esmeralda
01:18:53.228 : :Frollo Attacks Notre Dame
01:20:07.136 : :A Short-Lived Moment of Triumph
01:21:51.156 : :Unfinished Business
01:25:01.054 : :The Final Confrontation

----------------------------------------------------------------
x264 [info]: frame I:1358 Avg QP:13.14 size: 79754
x264 [info]: frame P:34511 Avg QP:16.87 size: 18536
x264 [info]: frame B:94790 Avg QP:17.03 size: 5130
----------------------------------------------------------------





Релиз от:



   Похожие торренты   Торрент   Размер 
В этой теме нет новых непрочитанных сообщений. Горбун из Нотр Дама / The Hunchback of Notre Dame (1996) BDRip-AVC | iPad

12 | 4

1.29 ГБ

В этой теме нет новых непрочитанных сообщений. Горбун из Нотр Дама / The Hunchback of Notre Dame (1996) BDRip от HQCLUB

172 | 7

1.46 ГБ

В этой теме нет новых непрочитанных сообщений. Горбун из Нотр Дама / The Hunchback of Notre Dame (1996) BDRip 1080p

17 | 7

4.36 ГБ

В этой теме нет новых непрочитанных сообщений. Горбун из Нотр Дама / The Hunchback of Notre Dame (1996) BDRip 1080p от Youtracker

3 | 7

7.47 ГБ

В этой теме нет новых непрочитанных сообщений. Горбун из Нотр Дама / The Hunchback of Notre Dame (1996) HDTVRip

15 | 3

742.81 МБ

В этой теме нет новых непрочитанных сообщений. Горбун из Нотр Дама I - II / The Hunchback of Notre Dame I - II (1996) (2002) BDRip 1080p от FREEISLAND

13 | 9

8.75 ГБ

В этой теме нет новых непрочитанных сообщений. Горбун из Нотр-Дама / The Hunchback of Notre Dame (1996) DVDRip от Torrent-Xzona | P2

2 | 3

700.19 МБ




Вы не можете начинать темы
Вы не можете отвечать на сообщения
Вы не можете редактировать свои сообщения
Вы не можете удалять свои сообщения
Вы не можете добавлять вложения

Перейти:  
Для Мосгорсуда, Роскомнадзора и рекламодателей: mosgorsud-torrent[собачка]yandex.ru
 Вход
ppkBB3cker v.2 © 2008-2014 @ PPK
[ Time : 0.031s | 14 Queries | GZIP : Off ]

Торрент трекер RUTOR.IN, Не можете зайти на rutor.org? Какой новый адрес рутор? Какое зеркало рутор? Не работает rutor.org и зеркала? Тогда наш торрент специально для вас. Rutor.in неофициальное зеркало rutor. В случае если у Вас заблокирован rutor или вдруг Вы не можете на него зайти, то Вы без труда сможете скачать бесплатно и без рекламы последние новинки кино, игр, сериалов и прочего у нас, на Rutor.in. Не нужно использовать прокси, чтобы зайти на рутор, достаточно воспользоваться нашим ресурсом. Все новые фильмы, игры, сериалы, книги и музыка за 2013 и 2014 годы через торрент бесплатно. Скачивайте фильмы в хорошем качестве, игры для пк, xbox, playstation без регистрации. У нас вы найдете новые Зарубежные сериалы и Русские сериалы 2013, 2014, 2015 годов. Оставайтесь с нами, качайте любимые фильмы, игры, сериалы, книги и музыку.