img image001 image001 image001 image001 image001 image001 image001 image001 image001 image001 image001 image001 image001 image001 image001

Planets Sun Sun Sun
Статистика раздачи
Автор: Снежана | Размер: 11.31 ГБ | Добавлен: 27 июл 2013
Раздают: 6    Качают: 12
Скачать торрент
Скачать торрент
Описание торрента

СообщениеДобавлено: 27 июл 2013 

#77

Информация о фильме

Название : Подземелье Драконов
Оригинальное название : Dungeons and Dragons

Год выхода : 1983-1985
Страна : США
Производство : Dungeons & Dragons Entertainment Corporation, Marvel Productions Ltd., Toei Animation Company, TSR
Жанр : мультфильм, фэнтези, комедия, приключения
Режиссер : Джон Гиббс
Роли озвучивали : Вилли Эймс, Дон Мост, Кэти Ли, Адам Рич, Тония Гэйл Смит, Тедди Филд III, Сидни Миллер, Фрэнк Уэлкер, Питер Каллен, Боб Холт

Описание : Шестеро детей, придя однажды в парк развлечений, решают прокатиться на аттракционе «Подземелье драконов»… и попадают в фэнтезийный мир, где светят четыре солнца и три луны, где обитают самые настоящие, живые драконы и водятся всевозможные чудовища. Там они встречают карлика, Хранителя Подземелья; он объясняет, что путь домой им преграждает местное воплощение Вселенского Зла — могущественный колдун Венджер. Хранитель распределяет между детьми роли сказочных героев и даёт каждому из них магический артефакт, который должен помочь им выжить и вернуться в свой мир.
Продолжительность : ~00:21:00 (серия)
Перевод : Профессиональный (полное дублирование) [ СТС ]
Релиз : afedrenkv
Файл

Формат видео : MPG
Качество : DVB

Видео : MPEG2 Video, 704x576 (4:3), 25.000 fps, ~2430 Kbps (0.240 bit/pixel)
Звук : MPEG Audio, 48.0 KHz, 2 ch, ~192 Kbps
Субтитры : нет




Доп. информацию про сериал можно прочитать здесь: http://ru.wikipedia.org/wiki/Подземелье ... ультсериал)
Season 1, Episode 01: The Night of No Tomorrow / Завтра не наступит
Season 1, Episode 02: Eye of the Beholder / Поход к Циклопу
Season 1, Episode 03: The Hall of Bones / Пантеон
Season 1, Episode 04: Valley of the Unicorns / Долина единорогов
Season 1, Episode 05: In Search of the Dungeon Master / В поисках Хранителя
Season 1, Episode 06: Beauty and the Bogbeast / Не тронь красу, несущую зло
Season 1, Episode 07: Prison Without Walls / Тюрьма без стен
Season 1, Episode 08: Servant of Evil / Слуга зла
Season 1, Episode 09: Quest of the Skeleton Warrior / В поисках Кольца Власти
Season 1, Episode 10: The Garden of Zinn / Сад королевы Зинн
Season 1, Episode 11: The Box / Сундук
Season 1, Episode 12: The Lost Children / Потерявшиеся дети
Season 1, Episode 13: P-R-E-S-T-O Spells Disaster / Ошибка Престо

Season 2, Episode 01: The Girl Who Dreamed Tomorrow / Вещие сны Терри
Season 2, Episode 02: The Treasure of Tardos / Сокровище Тардоса
Season 2, Episode 03: City at the Edge of Midnight / Город на краю полуночи
Season 2, Episode 04: The Traitor / Предатель
Season 2, Episode 05: Day of the Dungeon Master / Хранитель берёт выходной
Season 2, Episode 06: The Last Illusion / Последняя иллюзия
Season 2, Episode 07: The Dragon's Graveyard / Кладбище драконов
Season 2, Episode 08: Child of the Stargazer / Дитя звездочёта

Season 3, Episode 01: The Dungeon at the Heart of Dawn / В недрах неприступных гор
Season 3, Episode 02: The Time Lost / Потерянный во времени
Season 3, Episode 03: Odyssey of the 12th Talisman / Талисман двенадцати зол
Season 3, Episode 04: Citadel of Shadow / Цитадель тьмы
Season 3, Episode 05: Cave of the Fairie Dragons / Пещера драконов
Season 3, Episode 06: The Winds of Darkness / Ветер тьмы





General
Complete name : E:/Dungeons and Dragons/Season 1/S01 Ep 01 The Night of No Tomorrow.mpg
Format : MPEG-PS
File size : 404 MiB
Duration : 21mn 5s
Overall bit rate : 2 675 Kbps

Video #224
ID : 224 (0xE0)
Format : MPEG Video
Format version : Version 2
Format profile : Main@Main
Format settings, BVOP : Yes
Format settings, Matrix : Default
Duration : 21mn 4s
Bit rate mode : Variable
Bit rate : 2 430 Kbps
Nominal bit rate : 15.0 Mbps
Width : 704 pixels
Height : 576 pixels
Display aspect ratio : 4:3
Frame rate : 25.000 fps
Standard : PAL
Color space : YUV
Chroma subsampling : 4:2:0
Bit depth : 8 bits
Compression mode : Lossy
Bits/(Pixel*Frame) : 0.240
Stream size : 366 MiB (91%)

Audio #192
ID : 192 (0xC0)
Format : MPEG Audio
Format version : Version 1
Format profile : Layer 2
Duration : 21mn 5s
Bit rate mode : Constant
Bit rate : 192 Kbps
Channel(s) : 2 channels
Sampling rate : 48.0 KHz
Compression mode : Lossy
Delay relative to video : 14ms
Stream size : 29.0 MiB (7%)






   Похожие торренты   Торрент   Размер 
В этой теме нет новых непрочитанных сообщений. Подземелье Драконов / Dungeons And Dragons [01-04,06-25,27] (1983-1985) DVDRip

4 | 3

4.1 ГБ

В этой теме нет новых непрочитанных сообщений. Подземелье драконов / Dungeons & Dragons (2000) DVDRip

22 | 10

2.19 ГБ

В этой теме нет новых непрочитанных сообщений. Подземелье драконов / Dungeons & Dragons (2000) HDRip-AVC

84 | 20

1.46 ГБ

В этой теме нет новых непрочитанных сообщений. Подземелье драконов / Dungeons & Dragons (2000) BDRip-AVC от Rulya74

28 | 8

2.18 ГБ

В этой теме нет новых непрочитанных сообщений. Подземелье драконов / Dungeons & Dragons (2000) BDRip от HQCLUB

34 | 3

2.18 ГБ

В этой теме нет новых непрочитанных сообщений. Подземелье драконов / Dungeons & Dragons (2000) BDRip 1080 от SuperMin

62 | 9

7.63 ГБ

В этой теме нет новых непрочитанных сообщений. Подземелье драконов / Dungeons & Dragons (2000) BDRip 720p от Freeisland

3 | 4

4.37 ГБ




Вы не можете начинать темы
Вы не можете отвечать на сообщения
Вы не можете редактировать свои сообщения
Вы не можете удалять свои сообщения
Вы не можете добавлять вложения

Перейти:  
Для Мосгорсуда, Роскомнадзора и рекламодателей: mosgorsud-torrent[собачка]yandex.ru
 Вход
ppkBB3cker v.2 © 2008-2014 @ PPK
[ Time : 0.025s | 16 Queries | GZIP : Off ]

Торрент трекер RUTOR.IN, Не можете зайти на rutor.org? Какой новый адрес рутор? Какое зеркало рутор? Не работает rutor.org и зеркала? Тогда наш торрент специально для вас. Rutor.in неофициальное зеркало rutor. В случае если у Вас заблокирован rutor или вдруг Вы не можете на него зайти, то Вы без труда сможете скачать бесплатно и без рекламы последние новинки кино, игр, сериалов и прочего у нас, на Rutor.in. Не нужно использовать прокси, чтобы зайти на рутор, достаточно воспользоваться нашим ресурсом. Все новые фильмы, игры, сериалы, книги и музыка за 2013 и 2014 годы через торрент бесплатно. Скачивайте фильмы в хорошем качестве, игры для пк, xbox, playstation без регистрации. У нас вы найдете новые Зарубежные сериалы и Русские сериалы 2013, 2014, 2015 годов. Оставайтесь с нами, качайте любимые фильмы, игры, сериалы, книги и музыку.