img image001 image001 image001 image001 image001 image001 image001 image001 image001 image001 image001 image001 image001 image001 image001

Planets Sun Sun Sun
Статистика раздачи
Автор: Снежана | Размер: 3.3 ГБ | Добавлен: 28 июл 2013
Раздают: 0    Качают: 1
Скачать торрент
Скачать торрент
Описание торрента

СообщениеДобавлено: 28 июл 2013 

Страна: США
Жанр: Мультфильм, музыкальный, приключения.
Продолжительность: 01:15:09
Год выпуска: 1948
Перевод: Профессиональный (многоголосый закадровый)
Русские субтитры: есть

Режиссёр: Уилфред Джэксон/Wilfred Jackson, Джек Кинни/Jack Kinney, Клайд Джероними/Clyde Geronimi
Описание: Прекрасный мультипликационный фильм, включающий семь ярких и красочных музыкальных историй, входящих в Золотую коллекцию студии Уолта Диснея.
«Воспоминания о зиме» – это романс зиме, чудесному времени года, когда снег, танцуя и кружась, падает на землю пушистым покрывалом.
«Оркестр и пчела» – удивительная история о маленькой пчелке, очень любившей музыку.
Дерево прекрасно в своем величии. Мультфильм «Дерево» – это выразительная поэма, прославляющая красоту деревьев.
«Легенда о Джонни-яблочнике» – волшебный рассказ о настоящем первопроходце Джонни Яблочнике, подарившем всем прекрасные облака из цветущих яблонь.
«Параходик Гудочек» – чудесная сказка о смелом крошке-буксире, спасшем огромный океанский лайнер.
«Упрек Самбы» – это забавная встреча со всеми любимым Дональдом Даком.
«История ковбоя Билла Пекоса» – эта увлекательная история, пришедшая с Дикого Запада.

Доп. материалы: Отсутствуют
Семпл: http://multi-up.com/858297

Качество: DVD5
Формат: DVD-video
Видео: PAL 4:3 (720x576) VBR 5672 kbps
Аудио: Russian - Dolby AC3, 2 ch, 224 kbps
Аудио 2: English - Dolby AC3, 2 ch, 192 kbps
Субтитры: Русские, Английские.

Title: MELODYTIMESize: 3.30 Gb ( 3 464 356,00 KBytes ) - DVD-5Enabled regions: 1, 2, 3, 4, 5, 6, 7, 8

VTS_01 : Play Length: 01:15:09 Video: PAL 4:3 (720x576) VBR Audio: Russian, AC3, 2/0 (L,R) ch, 224 kbps, Delay 0 mSec English, AC3, 2/0 (L,R) ch, 192 kbps, Delay 0 mSec

Subtitles: Russian English

* Menus Information *

VIDEO_TS MenuVideo: PAL 4:3 (720x576) VBREnglish Language Unit : Title Menu

VTS_01 MenuVideo: PAL 4:3 (720x576) VBRAudio: Not specified (Dolby AC3, 2 ch)English Language Unit : Root Menu Subpicture Menu Audio Menu Chapter (PTT) Menu


Полное имя : C:UsersMELODYTIMEVIDEO_TSVTS_01_0.VOBФормат : MPEG-PSРазмер файла : 56,5 Мбайт

ВидеоИдентификатор : 224 (0xE0)Формат : MPEG VideoВерсия формата : Version 2Профиль формата : Main@MainПараметр BVOP формата : ДаПараметр матрицы формата : По умолчаниюВид битрейта : ПеременныйБитрейт : 8000 Кбит/секШирина : 720 пикселейВысота : 576 пикселейСоотношение сторон : 4:3Частота кадров : 25,000 кадров/секСтандарт вещания : PALРазрешение : 8 битКолориметрия : 4:2:0Бит/(Пиксели*Кадры) : 0.772

АудиоИдентификатор : 128 (0x80)Формат : AC-3Формат/Информация : Audio Coding 3Вид битрейта : ПостоянныйБитрейт : 224 Кбит/секКаналы : 2 каналаРасположение каналов : L RЧастота : 48,0 КГц

ТекстИдентификатор : 32 (0x20)Формат : RLEФормат/Информация : Run-length encoding

Меню

ОбщееПолное имя : C:UsersMELODYTIMEVIDEO_TSVTS_01_1.VOBФормат : MPEG-PSРазмер файла : 1024 МбайтПродолжительность : 22 м.Общий поток : 6340 Кбит/сек

ВидеоИдентификатор : 224 (0xE0)Формат : MPEG VideoВерсия формата : Version 2Профиль формата : Main@MainПараметр BVOP формата : ДаПараметр матрицы формата : По умолчаниюПродолжительность : 22 м.Вид битрейта : ПеременныйБитрейт : 5672 Кбит/секНоминальный битрейт : 8500 Кбит/секШирина : 720 пикселейВысота : 576 пикселейСоотношение сторон : 4:3Частота кадров : 25,000 кадров/секСтандарт вещания : PALРазрешение : 8 битКолориметрия : 4:2:0Тип развёртки : ЧересстрочнаяПорядок развёртки : Верхнее поле первоеБит/(Пиксели*Кадры) : 0.547Размер потока : 916 Мбайт (89%)

Аудио #1Идентификатор : 128 (0x80)Формат : AC-3Формат/Информация : Audio Coding 3Продолжительность : 22 м.Вид битрейта : ПостоянныйБитрейт : 224 Кбит/секКаналы : 2 каналаРасположение каналов : L RЧастота : 48,0 КГцЗадержка видео : -80 мс.Размер потока : 36,2 Мбайт (4%)

Аудио #2Идентификатор : 129 (0x81)Формат : AC-3Формат/Информация : Audio Coding 3Продолжительность : 22 м.Вид битрейта : ПостоянныйБитрейт : 192 Кбит/секКаналы : 2 каналаРасположение каналов : L RЧастота : 48,0 КГцЗадержка видео : -80 мс.Размер потока : 31,0 Мбайт (3%)

Текст #1Идентификатор : 32 (0x20)Формат : RLEФормат/Информация : Run-length encoding

Текст #2Идентификатор : 33 (0x21)Формат : RLEФормат/Информация : Run-length encoding

Меню

ОбщееПолное имя : C:UsersMELODYTIMEVIDEO_TSVTS_01_2.VOBФормат : MPEG-PSРазмер файла : 1024 МбайтПродолжительность : 23 м.Общий поток : 6180 Кбит/сек

ВидеоИдентификатор : 224 (0xE0)Формат : MPEG VideoВерсия формата : Version 2Профиль формата : Main@MainПараметр BVOP формата : ДаПараметр матрицы формата : По умолчаниюПродолжительность : 23 м.Вид битрейта : ПеременныйБитрейт : 5519 Кбит/секНоминальный битрейт : 8500 Кбит/секШирина : 720 пикселейВысота : 576 пикселейСоотношение сторон : 4:3Частота кадров : 25,000 кадров/секСтандарт вещания : PALРазрешение : 8 битКолориметрия : 4:2:0Тип развёртки : ЧересстрочнаяПорядок развёртки : Верхнее поле первоеБит/(Пиксели*Кадры) : 0.532Размер потока : 914 Мбайт (89%)

Аудио #1Идентификатор : 128 (0x80)Формат : AC-3Формат/Информация : Audio Coding 3Продолжительность : 23 м.Вид битрейта : ПостоянныйБитрейт : 224 Кбит/секКаналы : 2 каналаРасположение каналов : L RЧастота : 48,0 КГцЗадержка видео : -608 мс.Размер потока : 37,1 Мбайт (4%)

Аудио #2Идентификатор : 129 (0x81)Формат : AC-3Формат/Информация : Audio Coding 3Продолжительность : 23 м.Вид битрейта : ПостоянныйБитрейт : 192 Кбит/секКаналы : 2 каналаРасположение каналов : L RЧастота : 48,0 КГцЗадержка видео : -608 мс.Размер потока : 31,8 Мбайт (3%)

Меню

ОбщееПолное имя : C:UsersMELODYTIMEVIDEO_TSVTS_01_3.VOBФормат : MPEG-PSРазмер файла : 1024 МбайтПродолжительность : 23 м.Общий поток : 6078 Кбит/сек

ВидеоИдентификатор : 224 (0xE0)Формат : MPEG VideoВерсия формата : Version 2Профиль формата : Main@MainПараметр BVOP формата : ДаПараметр матрицы формата : По умолчаниюПродолжительность : 23 м.Вид битрейта : ПеременныйБитрейт : 5421 Кбит/секНоминальный битрейт : 8500 Кбит/секШирина : 720 пикселейВысота : 576 пикселейСоотношение сторон : 4:3Частота кадров : 25,000 кадров/секСтандарт вещания : PALРазрешение : 8 битКолориметрия : 4:2:0Тип развёртки : ЧересстрочнаяПорядок развёртки : Верхнее поле первоеБит/(Пиксели*Кадры) : 0.523Размер потока : 913 Мбайт (89%)

Аудио #1Идентификатор : 128 (0x80)Формат : AC-3Формат/Информация : Audio Coding 3Продолжительность : 23 м.Вид битрейта : ПостоянныйБитрейт : 224 Кбит/секКаналы : 2 каналаРасположение каналов : L RЧастота : 48,0 КГцЗадержка видео : -400 мс.Размер потока : 37,7 Мбайт (4%)

Аудио #2Идентификатор : 129 (0x81)Формат : AC-3Формат/Информация : Audio Coding 3Продолжительность : 23 м.Вид битрейта : ПостоянныйБитрейт : 192 Кбит/секКаналы : 2 каналаРасположение каналов : L RЧастота : 48,0 КГцЗадержка видео : -400 мс.Размер потока : 32,3 Мбайт (3%)

Текст #1Идентификатор : 33 (0x21)Формат : RLEФормат/Информация : Run-length encodingПродолжительность : 23 м.Задержка видео : 1 с. 760 мс.

Текст #2Идентификатор : 32 (0x20)Формат : RLEФормат/Информация : Run-length encoding

Меню

ОбщееПолное имя : C:UsersMELODYTIMEVIDEO_TSVTS_01_4.VOBФормат : MPEG-PSРазмер файла : 254 МбайтПродолжительность : 5 м. 50 с.Общий поток : 6084 Кбит/сек

ВидеоИдентификатор : 224 (0xE0)Формат : MPEG VideoВерсия формата : Version 2Профиль формата : Main@MainПараметр BVOP формата : ДаПараметр матрицы формата : По умолчаниюПродолжительность : 5 м. 50 с.Вид битрейта : ПеременныйБитрейт : 5427 Кбит/секНоминальный битрейт : 8500 Кбит/секШирина : 720 пикселейВысота : 576 пикселейСоотношение сторон : 4:3Частота кадров : 25,000 кадров/секСтандарт вещания : PALРазрешение : 8 битКолориметрия : 4:2:0Тип развёртки : ЧересстрочнаяПорядок развёртки : Верхнее поле первоеБит/(Пиксели*Кадры) : 0.523Размер потока : 227 Мбайт (89%)

Аудио #1Идентификатор : 128 (0x80)Формат : AC-3Формат/Информация : Audio Coding 3Продолжительность : 5 м. 50 с.Вид битрейта : ПостоянныйБитрейт : 224 Кбит/секКаналы : 2 каналаРасположение каналов : L RЧастота : 48,0 КГцЗадержка видео : -416 мс.Размер потока : 9,37 Мбайт (4%)

Аудио #2Идентификатор : 129 (0x81)Формат : AC-3Формат/Информация : Audio Coding 3Продолжительность : 5 м. 50 с.Вид битрейта : ПостоянныйБитрейт : 192 Кбит/секКаналы : 2 каналаРасположение каналов : L RЧастота : 48,0 КГцЗадержка видео : -384 мс.Размер потока : 8,03 Мбайт (3%)

Текст #1Идентификатор : 32 (0x20)Формат : RLEФормат/Информация : Run-length encodingЗадержка видео : 2 с. 880 мс.

Текст #2Идентификатор : 33 (0x21)Формат : RLEФормат/Информация : Run-length encodingЗадержка видео : 2 с. 880 мс.





   Похожие торренты   Торрент   Размер 
В этой теме нет новых непрочитанных сообщений. Время Мелодий / Melody Time (1948) DVDRip

7 | 4

698.41 МБ

В этой теме нет новых непрочитанных сообщений. Первоклассница (1948) DVD5

41 | 2

2.24 ГБ

В этой теме нет новых непрочитанных сообщений. Три мушкетера / The Three Musketeers (1948) DVD5

1 | 2

4.35 ГБ

В этой теме нет новых непрочитанных сообщений. Командное решение / Command Decision (1948) DVD5 | P

0 | 6

4.12 ГБ

В этой теме нет новых непрочитанных сообщений. Песня в сердце / Words And Music (1948) DVD5

6 | 10

4.3 ГБ

В этой теме нет новых непрочитанных сообщений. Сборник мультфильмов. Чудесные цветочки (1948-1984) DVD5

0 | 2

4.1 ГБ

В этой теме нет новых непрочитанных сообщений. Сборник мультфильмов - «Лесные сказки - 2» (1948-1956) DVD5

71 | 7

4.37 ГБ




Вы не можете начинать темы
Вы не можете отвечать на сообщения
Вы не можете редактировать свои сообщения
Вы не можете удалять свои сообщения
Вы не можете добавлять вложения

Перейти:  
Для Мосгорсуда, Роскомнадзора и рекламодателей: mosgorsud-torrent[собачка]yandex.ru
 Вход
ppkBB3cker v.2 © 2008-2014 @ PPK
[ Time : 0.081s | 14 Queries | GZIP : Off ]

Торрент трекер RUTOR.IN, Не можете зайти на rutor.org? Какой новый адрес рутор? Какое зеркало рутор? Не работает rutor.org и зеркала? Тогда наш торрент специально для вас. Rutor.in неофициальное зеркало rutor. В случае если у Вас заблокирован rutor или вдруг Вы не можете на него зайти, то Вы без труда сможете скачать бесплатно и без рекламы последние новинки кино, игр, сериалов и прочего у нас, на Rutor.in. Не нужно использовать прокси, чтобы зайти на рутор, достаточно воспользоваться нашим ресурсом. Все новые фильмы, игры, сериалы, книги и музыка за 2013 и 2014 годы через торрент бесплатно. Скачивайте фильмы в хорошем качестве, игры для пк, xbox, playstation без регистрации. У нас вы найдете новые Зарубежные сериалы и Русские сериалы 2013, 2014, 2015 годов. Оставайтесь с нами, качайте любимые фильмы, игры, сериалы, книги и музыку.