img image001 image001 image001 image001 image001 image001 image001 image001 image001 image001 image001 image001 image001 image001 image001 image001
Planets Sun Sun Sun
Статистика раздачи
Автор: Снежана | Размер: 1.46 ГБ | Добавлен: 27 июл 2013
Раздают: 90    Качают: 8
Скачать торрент
Скачать торрент
Описание торрента

СообщениеДобавлено: 27 июл 2013 

#77

Информация о фильме
Название:Том и Джерри. Трепещи, усатый!
Оригинальное название:Tom and Jerry in Shiver Me Whiskers
Год выпуска: 2006
Жанр: Мультфильм, комедия, семейный
Режиссер: Скотт Джеральдс
В ролях: Марк Хэмилл, Кэти Нэджими, Чарльз Нельсон Рейли, Кевин Майкл Ричардсон, Уоллес Шоун, Михаил Тихонов
О фильме: Это хулиганское путешествие затеял Том, когда отправился в плавание на непритязательной лодке за самым известным и ужасным пиратом морей Капитаном Рэдом. Устав драить палубу, Том думает, что удача изменила ему, но тут неожиданно всплывает мистическая бутылка, в которой хранится карта сокровищ. Мечта Тома найти сокровище и забрать его себе, похоже, невыполнима - в бутылке, кроме карты, обнаружился мышонок Джерри. Бедный маленький Джерри был стражем карты, а теперь у него на хвосте жадный кот. Придется ли Джерри отдать сокровище? Попадет ли Том первым на остров? Гонка началась...


Страна: США
Студия: Warner Bros
Продолжительность: 01:11:30
Перевод: Дублированный

Файл
Качество: BDRip (AVC)
Видео: MPEG-4 AVC, 1024x576, 2278 Кбит/c, 23.976 кадр/c
Аудио#1: Русский (AC3, 2 ch, 192 Кбит/c)
Аудио#2: Английский (AC3, 6 ch, 448 Кбит/c)
Субтитры: Русские

Семпл


Общее
Уникальный идентификатор : 173438167480992940435194527367595862365 (0x827AF9DCC86A5867BB919F2DB710A95D)
Полное имя : D:Mои раздачиTom.and.Jerry.in.Shiver.Me.Whiskers.2006.BDRip.(AVC)_MediaClub.mkv
Формат : Matroska
Версия формата : Version 2
Размер файла : 1,46 Гбайт
Продолжительность : 1 ч. 11 м.
Общий поток : 2918 Кбит/сек
Название фильма : Tom and Jerry in Shiver Me Whiskers (MediaClub-kaspr)
Дата кодирования : UTC 2013-04-25 18:15:29
Программа кодирования : mkvmerge v5.7.0 ('The Whirlwind') built on Aug 7 2012 14:11:40
Библиотека кодирования : libebml v1.2.3 + libmatroska v1.3.0
Видео
Идентификатор : 1
Формат : AVC
Формат/Информация : Advanced Video Codec
Профиль формата : High@L4.1
Параметр CABAC формата : Да
Параметр ReFrames формата : 8 кадров
Идентификатор кодека : V_MPEG4/ISO/AVC
Продолжительность : 1 ч. 11 м.
Битрейт : 2278 Кбит/сек
Ширина : 1024 пикселя
Высота : 576 пикселей
Соотношение сторон : 16:9
Режим частоты кадров : Постоянный
Частота кадров : 23,976 кадра/сек
Цветовое пространство : YUV
Субдискретизация насыщенности : 4:2:0
Битовая глубина : 8 бит
Тип развёртки : Прогрессивная
Бит/(Пиксели*Кадры) : 0.161
Размер потока : 1,11 Гбайт (76%)
Заголовок : Tom and Jerry in Shiver Me Whiskers (MediaClub-kaspr)
Библиотека кодирования : x264 core 130 r2273 b3065e6
Настройки программы : cabac=1 / ref=8 / deblock=1:-3:-3 / analyse=0x3:0x133 / me=umh / subme=11 / psy=1 / psy_rd=1.00:0.10 / mixed_ref=1 / me_range=32 / chroma_me=1 / trellis=2 / 8x8dct=1 / cqm=0 / deadzone=21,11 / fast_pskip=0 / chroma_qp_offset=-3 / threads=12 / lookahead_threads=1 / sliced_threads=0 / nr=0 / decimate=0 / interlaced=0 / bluray_compat=0 / constrained_intra=0 / bframes=6 / b_pyramid=2 / b_adapt=2 / b_bias=0 / direct=3 / weightb=1 / open_gop=0 / weightp=2 / keyint=240 / keyint_min=22 / scenecut=40 / intra_refresh=0 / rc_lookahead=40 / rc=2pass / mbtree=1 / bitrate=2278 / ratetol=1.0 / qcomp=0.60 / qpmin=0 / qpmax=69 / qpstep=4 / cplxblur=20.0 / qblur=0.5 / ip_ratio=1.40 / aq=1:1.00
Default : Да
Forced : Нет
Аудио #1
Идентификатор : 2
Формат : AC-3
Формат/Информация : Audio Coding 3
Профиль формата : Dolby Digital
Расширение режима : CM (complete main)
Параметр Endianness формата : Big
Идентификатор кодека : A_AC3
Продолжительность : 1 ч. 11 м.
Вид битрейта : Постоянный
Битрейт : 192 Кбит/сек
Каналы : 2 канала
Расположение каналов : Front: L R
Частота : 48,0 КГц
Битовая глубина : 16 бит
Метод сжатия : С потерями
Размер потока : 98,2 Мбайт (7%)
Заголовок : Дубляж
Язык : Russian
Default : Да
Forced : Нет
Аудио #2
Идентификатор : 3
Формат : AC-3
Формат/Информация : Audio Coding 3
Расширение режима : CM (complete main)
Параметр Endianness формата : Big
Идентификатор кодека : A_AC3
Продолжительность : 1 ч. 11 м.
Вид битрейта : Постоянный
Битрейт : 448 Кбит/сек
Каналы : 6 каналов
Расположение каналов : Front: L C R, Side: L R, LFE
Частота : 48,0 КГц
Битовая глубина : 16 бит
Метод сжатия : С потерями
Размер потока : 229 Мбайт (15%)
Заголовок : Оригинал
Язык : English
Default : Нет
Forced : Нет
Текст
Идентификатор : 4
Формат : UTF-8
Идентификатор кодека : S_TEXT/UTF8
Идентификатор кодека/Информация : UTF-8 Plain Text
Язык : Russian
Default : Нет
Forced : Нет
Меню
00:00:00.000 : en:Chapter 01
00:10:00.391 : en:Chapter 02
00:20:08.123 : en:Chapter 03
00:29:55.001 : en:Chapter 04
00:40:27.842 : en:Chapter 05
00:51:00.348 : en:Chapter 06
00:59:27.355 : en:Chapter 07
01:08:18.052 : en:Chapter 08







Релиз от:



   Похожие торренты   Торрент   Размер 
В этой теме нет новых непрочитанных сообщений. Том и Джерри: Трепещи, Усатый! / Tom and Jerry in Shiver Me Whiskers (2006) BDRip 1080p от FREEISLAND

18 | 3

4.37 ГБ

В этой теме нет новых непрочитанных сообщений. Том и Джерри: Трепещи, Усатый! / Tom and Jerry in Shiver Me Whiskers (2006) BDRip 720p от potroks | D

61 | 7

2.19 ГБ

В этой теме нет новых непрочитанных сообщений. Том и Джерри: Трепещи, Усатый! / Tom and Jerry in Shiver Me Whiskers (2006) DVDRip от slevin111

40 | 5

698 МБ

В этой теме нет новых непрочитанных сообщений. Tom and Jerry: war of the Whiskers (2002) PS2

80 | 2

557.3 МБ

В этой теме нет новых непрочитанных сообщений. Том и Джерри Сказки / Tom and Jerry Tales [01-06 из 06] (2006-2009) 6хDVD5

3 | 5

24.05 ГБ

В этой теме нет новых непрочитанных сообщений. Том и Джерри Сказки / Tom and Jerry Tales [01-06 из 06] (2006-2009) DVDRip AVC

24 | 9

8.59 ГБ

В этой теме нет новых непрочитанных сообщений. Том и Джерри: Сказки / Tom and Jerry Tales [01-78 из 78] (2006-2008) DVDRip-AVC от New-Team | P | лицензия

197 | 126

8.55 ГБ




Вы не можете начинать темы
Вы не можете отвечать на сообщения
Вы не можете редактировать свои сообщения
Вы не можете удалять свои сообщения
Вы не можете добавлять вложения

Перейти:  
Для Мосгорсуда, Роскомнадзора и рекламодателей: mosgorsud-torrent[собачка]yandex.ru
 Вход
ppkBB3cker v.2 © 2008-2014 @ PPK
[ Time : 0.042s | 15 Queries | GZIP : Off ]

cron