img image001 image001 image001 image001 image001 image001 image001 image001 image001 image001 image001 image001 image001 image001 image001

Planets Sun Sun Sun
Статистика раздачи
Автор: Снежана | Размер: 4.37 ГБ | Добавлен: 27 июл 2013
Раздают: 18    Качают: 3
Скачать торрент
Скачать торрент
Описание торрента

СообщениеДобавлено: 27 июл 2013 

Том и Джерри: Трепещи, Усатый! (видео)
Tom and Jerry in Shiver Me Whiskers
#77

Год выпуска: 2006
Страна: США
Жанр: мультфильм, комедия, семейный
Продолжительность: 01:11:31
Перевод: Профессиональный дублированный

Режиссер: Скотт Джералдс / Scott Jeralds
Сценарий: Крис Пэйнтер / Christopher Painter, Уильям Ханна / William Hanna, Джозеф Барбера / Joseph Barbera
Продюсер: Скотт Джералдс / Scott Jeralds, Том Минтон / Tom Minton, Джозеф Барбера / Joseph Barbera, Бобби Пейдж / Bobbie Page, Сэндер Шварц / Sander Schwartz
Композитор: Марк Уоттерс / Mark Watters


В ролях: Марк Хэмилл (Skull, озвучка), Кэти Нэджими (Blue Parrot Betty, озвучка), Чарльз Нельсон Рейли (Red Parrot Stan, озвучка), Кевин Майкл Ричардсон (Red Pirate Ron, Blue Pirate Bob, Purple Parrot, озвучка), Уоллес Шоун (Purple Pirate Paul, рассказчик, озвучка)

Описание: Это хулиганское путешествие затеял Том, когда отправился в плавание на непритязательной лодке за самым известным и ужасным пиратом морей Капитаном Рэдом. Устав драить палубу, Том думает, что удача изменила ему, но тут неожиданно всплывает мистическая бутылка, в которой хранится карта сокровищ.
Мечта Тома найти сокровище и забрать его себе, похоже, невыполнима - в бутылке, кроме карты, обнаружился мышонок Джерри. Бедный маленький Джерри был стражем карты, а теперь у него на хвосте жадный кот. Придется ли Джерри отдать сокровище? Попадет ли Том первым на остров? Гонка началась, а Тому и Джерри нужно быть вместе, чтобы пробраться через обезьян, атакующих кокосами, обойти гигантского осьминога, а также перехитрить пиратов, и найти, наконец спрятанные сокровища!





Качество: BDRip 1080р
Контейнер: MKV
Видео: AVC, 1920x1080 (16:9), 8114 kbps, 23,976 fps, 0,163 bpp
Аудио №1: русский /; AC3 /; 2.0 /; 48 kHz /; 192 kbps /; 16 bit
Аудио №2: английский /; AC3 /; 5.1 /; 48 kHz /; 448 kbps /; 16 bit
Субтитры №1: русские, английские (srt)
Навигация по главам: есть


x264 [info]: frame I:986 Avg QP:14.58 size:535006
x264 [info]: frame P:31885 Avg QP:17.46 size: 78922
x264 [info]: frame B:70001 Avg QP:18.74 size: 18633


General
Unique ID : 224613765748444806458879705970029175547 (0xA8FB09A92CB8D777BDAC925BFB0922FB)
Complete name : E:Tom and Jerry in Shiver(2006)1080p.F-HD.mkv
Format : Matroska
Format version : Version 4 / Version 2
File size : 4.37 GiB
Duration : 1h 11mn
Overall bit rate : 8 748 Kbps
Encoded date : UTC 2013-04-26 14:06:19
Writing application : mkvmerge v6.1.0 ('Old Devil') built on Mar 2 2013 14:32:37
Writing library : libebml v1.3.0 + libmatroska v1.4.0

Video
ID : 1
Format : AVC
Format/Info : Advanced Video Codec
Format profile : High@L4.1
Format settings, CABAC : Yes
Format settings, ReFrames : 4 frames
Codec ID : V_MPEG4/ISO/AVC
Duration : 1h 11mn
Bit rate : 8 114 Kbps
Width : 1 920 pixels
Height : 1 080 pixels
Display aspect ratio : 16:9
Frame rate : 23.976 fps
Color space : YUV
Chroma subsampling : 4:2:0
Bit depth : 8 bits
Scan type : Progressive
Bits/(Pixel*Frame) : 0.163
Stream size : 3.96 GiB (91%)
Writing library : x264 core 130 r2273kMod b3065e6
Encoding settings : cabac=1 / ref=4 / deblock=1:-3:-3 / analyse=0x3:0x113 / me=umh / subme=11 / psy=1 / fade_compensate=0.00 / psy_rd=0.80:0.05 / mixed_ref=1 / me_range=48 / chroma_me=1 / trellis=2 / 8x8dct=1 / cqm=0 / deadzone=21,11 / fast_pskip=0 / chroma_qp_offset=-3 / threads=6 / lookahead_threads=1 / sliced_threads=0 / nr=0 / decimate=1 / interlaced=0 / bluray_compat=0 / constrained_intra=0 / bframes=8 / b_pyramid=2 / b_adapt=2 / b_bias=0 / direct=3 / weightb=1 / open_gop=0 / weightp=2 / keyint=250 / keyint_min=23 / scenecut=40 / intra_refresh=0 / rc_lookahead=40 / rc=2pass / mbtree=0 / bitrate=8114 / ratetol=1.0 / qcomp=0.75 / qpmin=0 / qpmax=69 / qpstep=4 / cplxblur=20.0 / qblur=0.5 / vbv_maxrate=50000 / vbv_bufsize=62500 / nal_hrd=none / ip_ratio=1.40 / pb_ratio=1.30 / aq=3:0.70
Language : English
Default : Yes
Forced : No
Matrix coefficients : BT.709-5, BT.1361, IEC 61966-2-4 709, SMPTE RP177

Audio #1
ID : 2
Format : AC-3
Format/Info : Audio Coding 3
Format profile : Dolby Digital
Mode extension : CM (complete main)
Codec ID : A_AC3
Duration : 1h 11mn
Bit rate mode : Constant
Bit rate : 192 Kbps
Channel(s) : 2 channels
Channel positions : Front: L R
Sampling rate : 48.0 KHz
Bit depth : 16 bits
Compression mode : Lossy
Stream size : 98.2 MiB (2%)
Language : Russian
Default : Yes
Forced : No

Audio #2
ID : 3
Format : AC-3
Format/Info : Audio Coding 3
Mode extension : CM (complete main)
Codec ID : A_AC3
Duration : 1h 11mn
Bit rate mode : Constant
Bit rate : 448 Kbps
Channel(s) : 6 channels
Channel positions : Front: L C R, Side: L R, LFE
Sampling rate : 48.0 KHz
Bit depth : 16 bits
Compression mode : Lossy
Stream size : 229 MiB (5%)
Language : English
Default : No
Forced : No

Text #1
ID : 4
Format : UTF-8
Codec ID : S_TEXT/UTF8
Codec ID/Info : UTF-8 Plain Text
Language : Russian
Default : No
Forced : No

Text #2
ID : 5
Format : UTF-8
Codec ID : S_TEXT/UTF8
Codec ID/Info : UTF-8 Plain Text
Language : English
Default : No
Forced : No

Menu
00:00:00.000 : en:00:00:00.000
00:10:00.391 : en:00:10:00.391
00:20:08.123 : en:00:20:08.123
00:29:55.001 : en:00:29:55.001
00:40:27.842 : en:00:40:27.842
00:51:00.348 : en:00:51:00.348
00:59:27.355 : en:00:59:27.355
01:08:18.052 : en:01:08:18.052

Релиз от:



   Похожие торренты   Торрент   Размер 
В этой теме нет новых непрочитанных сообщений. Том и Джерри: Трепещи, Усатый! / Tom and Jerry in Shiver Me Whiskers (2006) BDRip-AVC от MediaClub

90 | 8

1.46 ГБ

В этой теме нет новых непрочитанных сообщений. Том и Джерри: Трепещи, Усатый! / Tom and Jerry in Shiver Me Whiskers (2006) BDRip 720p от potroks | D

61 | 7

2.19 ГБ

В этой теме нет новых непрочитанных сообщений. Том и Джерри: Трепещи, Усатый! / Tom and Jerry in Shiver Me Whiskers (2006) DVDRip от slevin111

40 | 5

698 МБ

В этой теме нет новых непрочитанных сообщений. Том и Джерри: Шерлок Холмс / Tom & Jerry Meet Sherlock Holmes (2010) BDRip 720p от Freeisland

22 | 8

2.25 ГБ

В этой теме нет новых непрочитанных сообщений. Том и Джерри: Коллекция / Tom & Jerry: Collection [1940-2012) BDRip 1080p

265 | 70

24.92 ГБ

В этой теме нет новых непрочитанных сообщений. Том и Джерри и Волшебник из страны Оз / Tom and Jerry & The Wizard of Oz (2011) BDRip 1080p | Лицензия

46 | 7

4.51 ГБ

В этой теме нет новых непрочитанных сообщений. Том и Джерри: Потерянный дракон / Tom & Jerry: The Lost Dragon (2014) BDRip 1080p | P

226 | 8

2.59 ГБ




Вы не можете начинать темы
Вы не можете отвечать на сообщения
Вы не можете редактировать свои сообщения
Вы не можете удалять свои сообщения
Вы не можете добавлять вложения

Перейти:  
Для Мосгорсуда, Роскомнадзора и рекламодателей: mosgorsud-torrent[собачка]yandex.ru
 Вход
ppkBB3cker v.2 © 2008-2014 @ PPK
[ Time : 0.041s | 16 Queries | GZIP : On ]

Торрент трекер RUTOR.IN, Не можете зайти на rutor.org? Какой новый адрес рутор? Какое зеркало рутор? Не работает rutor.org и зеркала? Тогда наш торрент специально для вас. Rutor.in неофициальное зеркало rutor. В случае если у Вас заблокирован rutor или вдруг Вы не можете на него зайти, то Вы без труда сможете скачать бесплатно и без рекламы последние новинки кино, игр, сериалов и прочего у нас, на Rutor.in. Не нужно использовать прокси, чтобы зайти на рутор, достаточно воспользоваться нашим ресурсом. Все новые фильмы, игры, сериалы, книги и музыка за 2013 и 2014 годы через торрент бесплатно. Скачивайте фильмы в хорошем качестве, игры для пк, xbox, playstation без регистрации. У нас вы найдете новые Зарубежные сериалы и Русские сериалы 2013, 2014, 2015 годов. Оставайтесь с нами, качайте любимые фильмы, игры, сериалы, книги и музыку.