img image001 image001 image001 image001 image001 image001 image001 image001 image001 image001 image001 image001 image001 image001 image001

Planets Sun Sun Sun
Статистика раздачи
Автор: Снежана | Размер: 146.59 МБ | Добавлен: 27 июл 2013
Раздают: 12    Качают: 2
Скачать торрент
Скачать торрент
Описание торрента

СообщениеДобавлено: 27 июл 2013 

#77

Информация о фильме

Название : Астробой против Пиратов с помойки
Оригинальное название : Astro Boy vs. The Junkyard Pirates
Год выхода : 2010
Жанр : мультфильм, короткометражка, фантастика, боевик, семейный
Режиссер : Дэвид Бауэрс
Роли озвучивали : Мойзес Ариас, Ди Брэдли Бейкер, Стерлинг Бомон, Кристен Белл, Мадлен Кэрролл, Дэвид Фейсс, Фредди Хаймор, Алан Тьюдик



Описание : Астробой с друзьями отправились на свалку, в поисках запчастей. Но там им путь перегородили "Пираты"...
Страна : США
Производство : Imagi Animation Studios
Продолжительность : 00:03:32
Перевод : Любительский (Одноголосый, закадровый) [-Доцент-]

Релиз : pasha37
Файл
Формат видео : MKV
Качество : BDRip-720p

Видео : AVC, 1280x544 (2,35:1), 23.976 fps, ~5400 Kbps (0.323 bit/pixel)
Звук 1: AC3, 48.0 KHz, 2 ch, ~192 Kbps (Rus)
Звук 2: AC3, 48.0 KHz, 2 ch, ~192 Kbps (Eng)
Субтитры : английские




Общее
Уникальный идентификатор : 183379755642132967211304934571467331891 (0x89F5A8008F9C14A7BCEEBE3D05D7D933)
Полное имя : C:Астробой против Пиратов с помойкиAstro Boy vs The Junkyard Pirates.2010.BDRip 720p.VO+ENG+SUB.mkv
Формат : Matroska
Версия формата : Version 2
Размер файла : 147 Мбайт
Продолжительность : 3 м. 32 с.
Общий поток : 5794 Кбит/сек
Дата кодирования : UTC 2012-07-24 06:23:47
Программа кодирования : mkvmerge v5.7.0 ('The Whirlwind') built on Jul 8 2012 20:08:51
Библиотека кодирования : libebml v1.2.3 + libmatroska v1.3.0

Видео
Идентификатор : 1
Формат : AVC
Формат/Информация : Advanced Video Codec
Профиль формата : High@L4.1
Параметр CABAC формата : Да
Параметр ReFrames формата : 8 кадров
Идентификатор кодека : V_MPEG4/ISO/AVC
Продолжительность : 3 м. 32 с.
Битрейт : 5400 Кбит/сек
Ширина : 1280 пикселей
Высота : 544 пикселя
Соотношение сторон : 2,35:1
Частота кадров : 23,976 кадра/сек
Цветовое пространство : YUV
Субдискретизация насыщенности : 4:2:0
Битовая глубина : 8 бит
Тип развёртки : Прогрессивная
Бит/(Пиксели*Кадры) : 0.323
Размер потока : 134 Мбайт (91%)
Библиотека кодирования : x264 core 119 r2106 07efeb4
Настройки программы : cabac=1 / ref=8 / deblock=1:-1:-1 / analyse=0x3:0x133 / me=umh / subme=9 / psy=1 / psy_rd=0.40:0.00 / mixed_ref=0 / me_range=16 / chroma_me=1 / trellis=2 / 8x8dct=1 / cqm=0 / deadzone=21,11 / fast_pskip=0 / chroma_qp_offset=-2 / threads=3 / sliced_threads=0 / nr=0 / decimate=1 / interlaced=0 / bluray_compat=0 / constrained_intra=0 / bframes=8 / b_pyramid=2 / b_adapt=2 / b_bias=0 / direct=3 / weightb=1 / open_gop=0 / weightp=2 / keyint=240 / keyint_min=25 / scenecut=40 / intra_refresh=0 / rc_lookahead=240 / rc=2pass / mbtree=1 / bitrate=5400 / ratetol=1.0 / qcomp=0.60 / qpmin=10 / qpmax=69 / qpstep=4 / cplxblur=20.0 / qblur=0.5 / ip_ratio=1.40 / aq=1:0.60
Default : Да
Forced : Нет

Аудио #1
Идентификатор : 2
Формат : AC-3
Формат/Информация : Audio Coding 3
Расширение режима : CM (complete main)
Параметр Endianness формата : Big
Идентификатор кодека : A_AC3
Продолжительность : 3 м. 32 с.
Вид битрейта : Постоянный
Битрейт : 192 Кбит/сек
Каналы : 2 канала
Расположение каналов : Front: L R
Частота : 48,0 КГц
Битовая глубина : 16 бит
Метод сжатия : С потерями
Размер потока : 4,86 Мбайт (3%)
Заголовок : VO (Доцент)
Язык : Russian
Default : Да
Forced : Нет

Аудио #2
Идентификатор : 3
Формат : AC-3
Формат/Информация : Audio Coding 3
Расширение режима : CM (complete main)
Параметр Endianness формата : Big
Идентификатор кодека : A_AC3
Продолжительность : 3 м. 32 с.
Вид битрейта : Постоянный
Битрейт : 192 Кбит/сек
Каналы : 2 канала
Расположение каналов : Front: L R
Частота : 48,0 КГц
Битовая глубина : 16 бит
Метод сжатия : С потерями
Размер потока : 4,86 Мбайт (3%)
Заголовок : ENG
Язык : English
Default : Нет
Forced : Нет

Текст
Идентификатор : 4
Формат : UTF-8
Идентификатор кодека : S_TEXT/UTF8
Идентификатор кодека/Информация : UTF-8 Plain Text
Заголовок : Eng Sub
Язык : English
Default : Да
Forced : Нет






   Похожие торренты   Торрент   Размер 
В этой теме нет новых непрочитанных сообщений. Астробой / Astro Boy (2009) BDRip 720p

3 | 3

3.62 ГБ

В этой теме нет новых непрочитанных сообщений. Астробой / Astro Boy (2009) BDRip-AVC | D

36 | 6

1.61 ГБ

В этой теме нет новых непрочитанных сообщений. Астробой / Astro Boy (2009) BDRip от HQCLUB

10 | 63

1.75 ГБ

В этой теме нет новых непрочитанных сообщений. Астробой / Astro Boy (2009) BDRip 1080p

21 | 4

4.37 ГБ

В этой теме нет новых непрочитанных сообщений. Астробой / Astro Boy (2009) BDRip 720 от SuperMin

55 | 14

2.18 ГБ

В этой теме нет новых непрочитанных сообщений. Астробой / Astro Boy (2009) BDRip 1080p

1 | 4

7.51 ГБ

В этой теме нет новых непрочитанных сообщений. Астробой / Astro Boy (2009) BDRip от HQ-ViDEO

321 | 8

1.46 ГБ




Вы не можете начинать темы
Вы не можете отвечать на сообщения
Вы не можете редактировать свои сообщения
Вы не можете удалять свои сообщения
Вы не можете добавлять вложения

Перейти:  
Для Мосгорсуда, Роскомнадзора и рекламодателей: mosgorsud-torrent[собачка]yandex.ru
 Вход
ppkBB3cker v.2 © 2008-2014 @ PPK
[ Time : 0.042s | 16 Queries | GZIP : Off ]

Торрент трекер RUTOR.IN, Не можете зайти на rutor.org? Какой новый адрес рутор? Какое зеркало рутор? Не работает rutor.org и зеркала? Тогда наш торрент специально для вас. Rutor.in неофициальное зеркало rutor. В случае если у Вас заблокирован rutor или вдруг Вы не можете на него зайти, то Вы без труда сможете скачать бесплатно и без рекламы последние новинки кино, игр, сериалов и прочего у нас, на Rutor.in. Не нужно использовать прокси, чтобы зайти на рутор, достаточно воспользоваться нашим ресурсом. Все новые фильмы, игры, сериалы, книги и музыка за 2013 и 2014 годы через торрент бесплатно. Скачивайте фильмы в хорошем качестве, игры для пк, xbox, playstation без регистрации. У нас вы найдете новые Зарубежные сериалы и Русские сериалы 2013, 2014, 2015 годов. Оставайтесь с нами, качайте любимые фильмы, игры, сериалы, книги и музыку.
cron