img image001 image001 image001 image001 image001 image001 image001 image001 image001 image001 image001 image001 image001 image001 image001 image001

Planets Sun Sun Sun
Статистика раздачи
Автор: Снежана | Размер: 2.19 ГБ | Добавлен: 27 июл 2013
Раздают: 160    Качают: 12
Скачать торрент
Скачать торрент
Описание торрента

СообщениеДобавлено: 27 июл 2013 

#77

Информация о фильме
Название: Волшебная страна / Летающая машина
Оригинальное название:The Flying Machine
Год выхода: 2011
Жанр: мультфильм, приключения, семейный
Режиссер: Мартин Клэпп, Дорота Кобеля, Джофф Линдси
В ролях: Хэзер Грэм, Лэнг Лэнг, Джэми Муннс, Киззи Ми

О фильме: Фильм рассказывает о занятой бизнес-леди Джорджи, которая берёт своих детей на просмотр мультфильма «Волшебное фортепиано», в котором всемирно известный пианист Ланг Ланг исполняет Шопена вживую. Главной героиней мультфильма является Анна — девочка, чей отец был вынужден уехать из Польши на заработки в Лондон. Однажды, Анна и её двоюродный брат Чип-Чип находят сломанное фортепиано, которое магическим образом превращается в летающую машину. На ней, дети отправляются в путешествие по Европе, в надежде найти отца девочки.Когда мультфильм заканчивается, Джорджи теряет своих детей и они попадают в волшебный анимационный мир, в котором женщине и предстоит их найти.
Выпущено: Великобритания, Польша, Китай, Индия, Норвегия / Breakthru Films, SMB Investments
Продолжительность: 01:16:15
Озвучивание: Профессиональное (многоголосое) [лицензия]

Файл
Качество: BDRip [720p]
Видео: 1280x720, 3 659 Кбит/сек, 23,976 кадр/сек, AVC, x264, 16:9, 0.166 Бит/[Пиксели*Кадры], 2pass
Аудио: AC-3, 448 Кбит/сек, 6 канала(ов), 48,0 КГц
Размер: 2,19 ГБ

Бюджет Фильма: -
Кассовые сборы: -

Релиз от:




Format : Matroska
Format version : Version 4 / Version 2
File size : 2.19 GiB
Duration : 1h 16mn
Overall bit rate : 4 109 Kbps
Encoded date : UTC 2013-04-27 08:41:44
Writing application : mkvmerge v6.1.0 ('Old Devil') built on Mar 2 2013 14:32:37
Writing library : libebml v1.3.0 + libmatroska v1.4.0

Video
ID : 2
Format : AVC
Format/Info : Advanced Video Codec
Format profile : High@L3.1
Format settings, CABAC : Yes
Format settings, ReFrames : 4 frames
Codec ID : V_MPEG4/ISO/AVC
Duration : 1h 16mn
Bit rate : 3 659 Kbps
Width : 1 280 pixels
Height : 720 pixels
Display aspect ratio : 16:9
Frame rate mode : Constant
Frame rate : 23.976 fps
Color space : YUV
Chroma subsampling : 4:2:0
Bit depth : 8 bits
Scan type : Progressive
Bits/(Pixel*Frame) : 0.166
Stream size : 1.91 GiB (87%)
Writing library : x264 core 130 r2273 b3065e6
Encoding settings : cabac=1 / ref=3 / deblock=1:0:0 / analyse=0x3:0x133 / me=hex / subme=7 / psy=1 / psy_rd=1.00:0.00 / mixed_ref=1 / me_range=16 / chroma_me=1 / trellis=1 / 8x8dct=1 / cqm=0 / deadzone=21,11 / fast_pskip=1 / chroma_qp_offset=-2 / threads=6 / lookahead_threads=1 / sliced_threads=0 / nr=0 / decimate=1 / interlaced=0 / bluray_compat=0 / constrained_intra=0 / bframes=3 / b_pyramid=2 / b_adapt=1 / b_bias=0 / direct=1 / weightb=1 / open_gop=0 / weightp=2 / keyint=240 / keyint_min=23 / scenecut=40 / intra_refresh=0 / rc_lookahead=40 / rc=2pass / mbtree=1 / bitrate=3659 / ratetol=1.0 / qcomp=0.60 / qpmin=0 / qpmax=69 / qpstep=4 / cplxblur=20.0 / qblur=0.5 / ip_ratio=1.40 / aq=1:1.00
Language : English
Default : Yes
Forced : No

Audio
ID : 1
Format : AC-3
Format/Info : Audio Coding 3
Mode extension : CM (complete main)
Format settings, Endianness : Big
Codec ID : A_AC3
Duration : 1h 16mn
Bit rate mode : Constant
Bit rate : 448 Kbps
Channel(s) : 6 channels
Channel positions : Front: L C R, Side: L R, LFE
Sampling rate : 48.0 KHz
Bit depth : 16 bits
Compression mode : Lossy
Stream size : 244 MiB (11%)
Default : Yes
Forced : No



   Похожие торренты   Торрент   Размер 
В этой теме нет новых непрочитанных сообщений. Летающая машина / Волшебная страна / The Flying Machine (2011) BDRip 1080p от R.G.GoldenShara

5 | 2

4.37 ГБ

В этой теме нет новых непрочитанных сообщений. Летающая машина / Волшебная страна / The Flying Machine (2011) BDRip 1080p | 3D-Video

4 | 2

7.85 ГБ

В этой теме нет новых непрочитанных сообщений. Волшебная страна / Летающая машина / The Flying Machine [2D/3D] (2011) Blu-Ray | Лицензия

1 | 2

23.03 ГБ

В этой теме нет новых непрочитанных сообщений. Летающая машина / Волшебная страна / The Flying Machine (2011) BDRip 1080p от Youtracker | 3D-Video | Лицензия

12 | 3

5.21 ГБ

В этой теме нет новых непрочитанных сообщений. Летающая машина / Волшебная страна / The Flying Machine (2011) HDRip | Лицензия

17 | 7

1.46 ГБ

В этой теме нет новых непрочитанных сообщений. Волшебная страна / Finding Neverland (2004) BDRip 720p | D, P, P2

50 | 11

4.34 ГБ

В этой теме нет новых непрочитанных сообщений. Машина / The Machine (2013) BDRip 720p от CINEMANIA | L1

2205 | 383

4.33 ГБ




Вы не можете начинать темы
Вы не можете отвечать на сообщения
Вы не можете редактировать свои сообщения
Вы не можете удалять свои сообщения
Вы не можете добавлять вложения

Перейти:  
 Вход
ppkBB3cker v.2 © 2008-2014 @ PPK
[ Time : 0.035s | 16 Queries | GZIP : Off ]

cron