img image001 image001 image001 image001 image001 image001 image001 image001 image001 image001 image001 image001 image001 image001 image001

Planets Sun Sun Sun
Статистика раздачи
Автор: Снежана | Размер: 4.31 ГБ | Добавлен: 27 июл 2013
Раздают: 1    Качают: 2
Скачать торрент
Скачать торрент
Описание торрента

СообщениеДобавлено: 27 июл 2013 

#77

Информация о фильме
Название: Би Муви: медовый заговор
Оригинальное название: Bee Movie
Год выхода: 2007
Жанр: комедия, приключения, семейный, мультфильм
Режиссер: Стив Хикнер, Саймон Дж. Смит
В ролях: Джерри Сейнфелд, Рене Зеллвегер, Мэттью Бродерик, Патрик Варбертон, Джон Гудмен, Крис Рок, Кэти Бейтс, Барри Левинсон, Ларри Кинг, Рэй Лиотта

О фильме:
Барри Би Нельсон — пчелка, только что закончившая колледж и весьма разочарованная дальнейшей карьерой. Ведь единственный выбор, открывающийся перед ней — сбор меда. Отправившись куда глаза глядят, Барри попадает в передрягу, из которой его вызволяет Ванесса, нью-йоркская цветочница.

Барри немедленно влюбляется в спасительницу, и перебирается жить поближе к ней. Именно в Нью-Йорке он узнает, что мед, который с таким трудом добывают пчелы, люди съедают. И Барри решает предъявить человечеству иск.


Страна: США
Продолжительность: 01:26:57
Перевод: Профессиональный (полное дублирование)

Файл
Кодек: MPEG2
Качество: DVD5
Видео: PAL 16:9 (720x576) VBR, Auto Letterboxed
Звук:
Russian (Dolby AC3, 6 ch, 48kHz; 384Kbps)
English (Dolby AC3, 6 ch, 48kHz; 448Kbps)
Субтитры: Русский, Английский, Украинский

Сжималось связкой DVDRemake Pro, DVD Rebuilder + CCE/Procoder в 9 проходов, Фильм НЕ СЖИМАЛСЯ, конечные титры 90%, дополнительные материалы сжаты на 50%.Удалены предупреждения, реклама, Украинская дорога, комментарии,трейлеры, лучшие игы

Кто озвучивал "Би-Муви"
- Как создавался мультфильм
- Знакомьтесь: Барри Б. Бенсон
- Видеоклип: "We Got The Bee"
- Пожужжим о пчелах!
- Измеритель
- Невероятно!

Общее
Полное имя : D:ТорентыBee_Movie_DVD5VIDEO_TSVTS_07_1.VOB
Формат : MPEG-PS
Размер файла : 1024 Мбайт
Продолжительность : 21 м.
Режим общего битрейта : Переменный
Общий поток : 6716 Кбит/сек

Видео
Идентификатор : 224 (0xE0)
Формат : MPEG Video
Версия формата : Version 2
Профиль формата : Main@Main
Параметр BVOP формата : Да
Параметр матрицы формата : Выборочная
Параметр GOP формата : Variable
Продолжительность : 21 м.
Вид битрейта : Переменный
Битрейт : 5750 Кбит/сек
Ширина : 720 пикселей
Высота : 576 пикселей
Соотношение сторон : 16:9
Частота кадров : 25,000 кадров/сек
Стандарт вещания : PAL
Цветовое пространство : YUV
Субдискретизация насыщенности : 4:2:0
Битовая глубина : 8 бит
Тип развёртки : Прогрессивная
Порядок развёртки : Верхнее поле первое
Метод сжатия : С потерями
Бит/(Пиксели*Кадры) : 0.555
Размер потока : 877 Мбайт (86%)

Аудио #1
Идентификатор : 189 (0xBD)-128 (0x80)
Формат : AC-3
Формат/Информация : Audio Coding 3
Расширение режима : CM (complete main)
Параметр Endianness формата : Big
Режим смешивания : DVD-Video
Продолжительность : 21 м.
Вид битрейта : Постоянный
Битрейт : 448 Кбит/сек
Каналы : 6 каналов
Расположение каналов : Front: L C R, Side: L R, LFE
Частота : 48,0 КГц
Битовая глубина : 16 бит
Метод сжатия : С потерями
Размер потока : 68,3 Мбайт (7%)

Аудио #2
Идентификатор : 189 (0xBD)-129 (0x81)
Формат : AC-3
Формат/Информация : Audio Coding 3
Расширение режима : CM (complete main)
Параметр Endianness формата : Big
Режим смешивания : DVD-Video
Продолжительность : 21 м.
Вид битрейта : Постоянный
Битрейт : 384 Кбит/сек
Каналы : 6 каналов
Расположение каналов : Front: L C R, Side: L R, LFE
Частота : 48,0 КГц
Битовая глубина : 16 бит
Метод сжатия : С потерями
Размер потока : 58,5 Мбайт (6%)

Текст #1
Идентификатор : 189 (0xBD)-32 (0x20)
Формат : RLE
Формат/Информация : Run-length encoding
Режим смешивания : DVD-Video
Продолжительность : 21 м.

Текст #2
Идентификатор : 189 (0xBD)-33 (0x21)
Формат : RLE
Формат/Информация : Run-length encoding
Режим смешивания : DVD-Video
Продолжительность : 21 м.

Текст #3
Идентификатор : 189 (0xBD)-34 (0x22)
Формат : RLE
Формат/Информация : Run-length encoding
Режим смешивания : DVD-Video
Продолжительность : 21 м.

Текст #4
Идентификатор : 189 (0xBD)-35 (0x23)
Формат : RLE
Формат/Информация : Run-length encoding
Режим смешивания : DVD-Video
Продолжительность : 21 м.

Текст #5
Идентификатор : 189 (0xBD)-36 (0x24)
Формат : RLE
Формат/Информация : Run-length encoding
Режим смешивания : DVD-Video
Продолжительность : 21 м.

Меню





   Похожие торренты   Торрент   Размер 
В этой теме нет новых непрочитанных сообщений. Би Муви: Медовый заговор / Bee Movie (2007) HDRip

193 | 7

746.71 МБ

В этой теме нет новых непрочитанных сообщений. Би Муви: Медовый заговор / Bee Movie (2007) DVDRip

28 | 3

1.37 ГБ

В этой теме нет новых непрочитанных сообщений. Би Муви: Медовый заговор / Bee Movie (2007) BDRemux

0 | 2

21.92 ГБ

В этой теме нет новых непрочитанных сообщений. Би Муви: Медовый заговор / Bee Movie (2007) BDRip 1080p

28 | 14

4.37 ГБ

В этой теме нет новых непрочитанных сообщений. Би Муви: Медовый заговор / Bee Movie (2007) BDRip-AVC от DenisNN

5 | 2

2.29 ГБ

В этой теме нет новых непрочитанных сообщений. Би Муви: Медовый заговор / Bee Movie (2007) HDTVRip от HQ-ViDEO

135 | 12

1.46 ГБ

В этой теме нет новых непрочитанных сообщений. Би Муви: Медовый заговор / Bee Movie (2007) BDRip от HQ-ViDEO

9 | 7

1.69 ГБ




Вы не можете начинать темы
Вы не можете отвечать на сообщения
Вы не можете редактировать свои сообщения
Вы не можете удалять свои сообщения
Вы не можете добавлять вложения

Перейти:  
Для Мосгорсуда, Роскомнадзора и рекламодателей: mosgorsud-torrent[собачка]yandex.ru
 Вход
ppkBB3cker v.2 © 2008-2014 @ PPK
[ Time : 0.065s | 14 Queries | GZIP : Off ]

Торрент трекер RUTOR.IN, Не можете зайти на rutor.org? Какой новый адрес рутор? Какое зеркало рутор? Не работает rutor.org и зеркала? Тогда наш торрент специально для вас. Rutor.in неофициальное зеркало rutor. В случае если у Вас заблокирован rutor или вдруг Вы не можете на него зайти, то Вы без труда сможете скачать бесплатно и без рекламы последние новинки кино, игр, сериалов и прочего у нас, на Rutor.in. Не нужно использовать прокси, чтобы зайти на рутор, достаточно воспользоваться нашим ресурсом. Все новые фильмы, игры, сериалы, книги и музыка за 2013 и 2014 годы через торрент бесплатно. Скачивайте фильмы в хорошем качестве, игры для пк, xbox, playstation без регистрации. У нас вы найдете новые Зарубежные сериалы и Русские сериалы 2013, 2014, 2015 годов. Оставайтесь с нами, качайте любимые фильмы, игры, сериалы, книги и музыку.