img image001 image001 image001 image001 image001 image001 image001 image001 image001 image001 image001 image001 image001 image001 image001

Planets Sun Sun Sun
Статистика раздачи
Автор: Снежана | Размер: 6.7 ГБ | Добавлен: 27 июл 2013
Раздают: 1    Качают: 2
Скачать торрент
Скачать торрент
Описание торрента

СообщениеДобавлено: 27 июл 2013 

[imgright]http://i48.fastpic.ru/big/2013/0422/91/71f7983de57283b99b0a622ba17b4d91.png" /> [img]http://i33.fastpic.ru/big/2013/0422/a4/5dc52fa38c5462e0ee336acc82650ea4.png[/imgright]На официальной странице Cartoon Network Russia в Facebook сообщили,
что серии 10-20 в дубляже студии Невафильм будут показаны только не раньше осени.


Большое спасибо afedrenkv и Rishkhaan за запись дубляжа с Cartoon Network Russia.
Над русским дубляжом мультсериала работает та же студия, которая работала над дубляжом полнометражного фильма "Как приручить дракона" и короткометражек, сохранены большинство актеров из фильма.
Общее
Уникальный идентификатор : 238439168320507129248093588733911545546 (0xB361B6A295578EE4A56B54B45A46B6CA)
Полное имя : D:Dragons - Riders of Berk [Season 1] (2012) WEB-DL 720p [Rus, Eng]S01E01 - How to Start a Dragon Academy.mkv
Формат : Matroska
Версия формата : Version 4 / Version 2
Размер файла : 756 Мбайт
Продолжительность : 22 м.
Общий поток : 4683 Кбит/сек
Название фильма : Драконы и всадники Олуха / Dragons: Riders of Berk [Сезон 1] (2012) WEB-DL 720p [Rus, Eng]
Дата кодирования : UTC 2013-03-01 19:42:13
Программа кодирования : mkvmerge v6.0.0 ('Coming Up For Air') built on Jan 20 2013 09:52:00
Библиотека кодирования : libebml v1.3.0 + libmatroska v1.4.0

Видео
Идентификатор : 1
Формат : AVC
Формат/Информация : Advanced Video Codec
Профиль формата : High@L3.1
Параметр CABAC формата : Нет
Параметр ReFrames формата : 2 кадра
Идентификатор кодека : V_MPEG4/ISO/AVC
Продолжительность : 22 м.
Битрейт : 3981 Кбит/сек
Ширина : 1280 пикселей
Высота : 720 пикселей
Соотношение сторон : 16:9
Режим частоты кадров : Постоянный
Частота кадров : 23,976 кадра/сек
Цветовое пространство : YUV
Субдискретизация насыщенности : 4:2:0
Битовая глубина : 8 бит
Тип развёртки : Прогрессивная
Бит/(Пиксели*Кадры) : 0.180
Размер потока : 643 Мбайт (85%)
Заголовок : S01E01 - Как устроить Школу Драконов / How to Start a Dragon Academy
Язык : English
Default : Да
Forced : Нет
Основные цвета : BT.709
Характеристики трансфера : BT.709
Коэффициенты матрицы : BT.709

Аудио #1
Идентификатор : 2
Формат : AC-3
Формат/Информация : Audio Coding 3
Расширение режима : CM (complete main)
Параметр Endianness формата : Big
Идентификатор кодека : A_AC3
Продолжительность : 22 м.
Вид битрейта : Постоянный
Битрейт : 224 Кбит/сек
Каналы : 2 канала
Расположение каналов : Front: L R
Частота : 48,0 КГц
Битовая глубина : 16 бит
Метод сжатия : С потерями
Размер потока : 36,2 Мбайт (5%)
Заголовок : Дубляж [Невафильм]
Язык : Russian
Default : Да
Forced : Нет

Аудио #2
Идентификатор : 3
Формат : AC-3
Формат/Информация : Audio Coding 3
Расширение режима : CM (complete main)
Параметр Endianness формата : Big
Идентификатор кодека : A_AC3
Продолжительность : 22 м.
Вид битрейта : Постоянный
Битрейт : 384 Кбит/сек
Каналы : 6 каналов
Расположение каналов : Front: L C R, Side: L R, LFE
Частота : 48,0 КГц
Битовая глубина : 16 бит
Метод сжатия : С потерями
Размер потока : 62,0 Мбайт (8%)
Заголовок : Оригинал
Язык : English
Default : Нет
Forced : Нет
01. Как устроить Школу Драконов / How to Start a Dragon Academy
02. Викинг в поисках работы / Viking for Hire
03. Обитель домашних животных / Animal House
04. Грозная пара / The Terrible Twos
05. На драконов уповаем / In Dragons We Trust
06. Элвин и Изгои / Alvin and The Outcasts
07. Как подобрать себе дракона / How to Pick Your Dragon
08. Портрет Иккинга-здоровяка / Portrait of Hiccup as a Buff Man
09. Драконий цветок / Dragon Flower





   Похожие торренты   Торрент   Размер 
В этой теме нет новых непрочитанных сообщений. Драконы и всадники Олуха / Dragons: Riders of Berk [01x01-09 из 20] (2012) WEB-DLRip | Невафильм

3 | 5

2.77 ГБ

В этой теме нет новых непрочитанных сообщений. Драконы и всадники Олуха / Dragons: Riders of Berk [01x01-09 из 20] (2012) WEB-DL 1080p | Невафильм

1 | 3

8.04 ГБ

В этой теме нет новых непрочитанных сообщений. Драконы и всадники Олуха / Dragons: Riders of Berk [S01] (2012) WEB-DL 720p | Невафильм

24 | 7

14.74 ГБ

В этой теме нет новых непрочитанных сообщений. Драконы и всадники Олуха / Dragons: Riders of Berk [S01] (2012) WEB-DL 1080p | Невафильм

75 | 20

17.87 ГБ

В этой теме нет новых непрочитанных сообщений. Драконы и всадники Олуха / Dragons: Riders of Berk [S01] (2012) WEB-DLRip | Невафильм

556 | 154

6.15 ГБ

В этой теме нет новых непрочитанных сообщений. Драконы и всадники Олуха / Dragons: Riders of Berk [S01] (2012-2013) DVB | Невафильм

56 | 9

6.55 ГБ

В этой теме нет новых непрочитанных сообщений. Драконы и всадники Олуха / Dragons: Riders of Berk [01x01-10] (2012) WEB-DL 720p | NoMorePlayTV

1 | 2

7.69 ГБ




Вы не можете начинать темы
Вы не можете отвечать на сообщения
Вы не можете редактировать свои сообщения
Вы не можете удалять свои сообщения
Вы не можете добавлять вложения

Перейти:  
Для Мосгорсуда, Роскомнадзора и рекламодателей: mosgorsud-torrent[собачка]yandex.ru
 Вход
ppkBB3cker v.2 © 2008-2014 @ PPK
[ Time : 0.031s | 14 Queries | GZIP : Off ]

Торрент трекер RUTOR.IN, Не можете зайти на rutor.org? Какой новый адрес рутор? Какое зеркало рутор? Не работает rutor.org и зеркала? Тогда наш торрент специально для вас. Rutor.in неофициальное зеркало rutor. В случае если у Вас заблокирован rutor или вдруг Вы не можете на него зайти, то Вы без труда сможете скачать бесплатно и без рекламы последние новинки кино, игр, сериалов и прочего у нас, на Rutor.in. Не нужно использовать прокси, чтобы зайти на рутор, достаточно воспользоваться нашим ресурсом. Все новые фильмы, игры, сериалы, книги и музыка за 2013 и 2014 годы через торрент бесплатно. Скачивайте фильмы в хорошем качестве, игры для пк, xbox, playstation без регистрации. У нас вы найдете новые Зарубежные сериалы и Русские сериалы 2013, 2014, 2015 годов. Оставайтесь с нами, качайте любимые фильмы, игры, сериалы, книги и музыку.