img image001 image001 image001 image001 image001 image001 image001 image001 image001 image001 image001 image001 image001 image001 image001 image001

Planets Sun Sun Sun
Статистика раздачи
Автор: Снежана | Размер: 2.77 ГБ | Добавлен: 27 июл 2013
Раздают: 3    Качают: 5
Скачать торрент
Скачать торрент
Описание торрента

СообщениеДобавлено: 27 июл 2013 

[imgright]http://i48.fastpic.ru/big/2013/0422/91/71f7983de57283b99b0a622ba17b4d91.png" /> [img]http://i33.fastpic.ru/big/2013/0422/a4/5dc52fa38c5462e0ee336acc82650ea4.png[/imgright]На официальной странице Cartoon Network Russia в Facebook сообщили,
что серии 10-20 в дубляже студии Невафильм будут показаны только не раньше осени.


Большое спасибо afedrenkv и Rishkhaan за запись дубляжа с Cartoon Network Russia.
Над русским дубляжом мультсериала работает та же студия, которая работала над дубляжом полнометражного фильма "Как приручить дракона" и короткометражек, сохранены большинство актеров из фильма.
Общее
Полное имя : D:Dragons - Riders of Berk [Season 1] (2012) WEB-DLRip [Rus, Eng]S01E01 - How to Start a Dragon Academy.avi
Формат : AVI
Формат/Информация : Audio Video Interleave
Размер файла : 318 Мбайт
Продолжительность : 22 м.
Общий поток : 1971 Кбит/сек
Программа кодирования : VirtualDubMod 1.5.10.3 (build 2550/release)
Библиотека кодирования : VirtualDubMod build 2550/release

Видео
Идентификатор : 0
Формат : MPEG-4 Visual
Профиль формата : Advanced Simple@L5
Параметр BVOP формата : 1
Параметр QPel формата : Нет
Параметр GMC формата : Без точки перехода
Параметр матрицы формата : Default (H.263)
Режим смешивания : Сжатый битовый поток
Идентификатор кодека : XVID
Идентификатор кодека/Подсказка : XviD
Продолжительность : 22 м.
Битрейт : 1572 Кбит/сек
Ширина : 720 пикселей
Высота : 400 пикселей
Соотношение сторон : 16:9
Частота кадров : 23,976 кадра/сек
Цветовое пространство : YUV
Субдискретизация насыщенности : 4:2:0
Битовая глубина : 8 бит
Тип развёртки : Прогрессивная
Метод сжатия : С потерями
Бит/(Пиксели*Кадры) : 0.228
Размер потока : 254 Мбайт (80%)
Библиотека кодирования : XviD 1.2.1 (UTC 2008-12-04)

Аудио #1
Идентификатор : 1
Формат : AC-3
Формат/Информация : Audio Coding 3
Расширение режима : CM (complete main)
Параметр Endianness формата : Big
Идентификатор кодека : 2000
Продолжительность : 22 м.
Вид битрейта : Постоянный
Битрейт : 192 Кбит/сек
Каналы : 2 канала
Расположение каналов : Front: L R
Частота : 48,0 КГц
Битовая глубина : 16 бит
Метод сжатия : С потерями
Размер потока : 31,0 Мбайт (10%)
Выравнивание : Разделение по промежуткам
Продолжительность промежутка : 42 мс. (1,00 видеокадр)
Время предзагрузки промежутка : 500 мс.

Аудио #2
Идентификатор : 2
Формат : AC-3
Формат/Информация : Audio Coding 3
Расширение режима : CM (complete main)
Параметр Endianness формата : Big
Идентификатор кодека : 2000
Продолжительность : 22 м.
Вид битрейта : Постоянный
Битрейт : 192 Кбит/сек
Каналы : 2 канала
Расположение каналов : Front: L R
Частота : 48,0 КГц
Битовая глубина : 16 бит
Метод сжатия : С потерями
Размер потока : 31,0 Мбайт (10%)
Выравнивание : Разделение по промежуткам
Продолжительность промежутка : 42 мс. (1,00 видеокадр)
Время предзагрузки промежутка : 500 мс.
01. Как устроить Школу Драконов / How to Start a Dragon Academy
02. Викинг в поисках работы / Viking for Hire
03. Обитель домашних животных / Animal House
04. Грозная пара / The Terrible Twos
05. На драконов уповаем / In Dragons We Trust
06. Элвин и Изгои / Alvin and The Outcasts
07. Как подобрать себе дракона / How to Pick Your Dragon
08. Портрет Иккинга-здоровяка / Portrait of Hiccup as a Buff Man
09. Драконий цветок / Dragon Flower





   Похожие торренты   Торрент   Размер 
В этой теме нет новых непрочитанных сообщений. Драконы и всадники Олуха / Dragons: Riders of Berk [S01] (2012) WEB-DLRip | Невафильм

580 | 175

6.15 ГБ

В этой теме нет новых непрочитанных сообщений. Драконы и всадники Олуха / Dragons: Riders of Berk [S01] (2012) WEB-DL 720p | Невафильм

24 | 7

14.74 ГБ

В этой теме нет новых непрочитанных сообщений. Драконы и всадники Олуха / Dragons: Riders of Berk [S01] (2012) WEB-DL 1080p | Невафильм

75 | 20

17.87 ГБ

В этой теме нет новых непрочитанных сообщений. Драконы и всадники Олуха / Dragons: Riders of Berk [S01] (2012-2013) DVB | Невафильм

56 | 9

6.55 ГБ

В этой теме нет новых непрочитанных сообщений. Драконы и всадники Олуха / Dragons: Riders of Berk [S01] (2012) WEB-DLRip от New-Team | D, P

99 | 17

6.96 ГБ

В этой теме нет новых непрочитанных сообщений. Драконы: Защитники Олуха / Dragons: Defenders of Berk [S02] (2013) WEB-DLRip | D

924 | 225

6.3 ГБ

В этой теме нет новых непрочитанных сообщений. Драконы: Защитники Олуха / Dragons: Defenders of Berk [S02x01-14 из 20] (2013) WEB-DLRip | D

149 | 143

4.41 ГБ




Вы не можете начинать темы
Вы не можете отвечать на сообщения
Вы не можете редактировать свои сообщения
Вы не можете удалять свои сообщения
Вы не можете добавлять вложения

Перейти:  
 Вход
ppkBB3cker v.2 © 2008-2014 @ PPK
[ Time : 0.029s | 17 Queries | GZIP : Off ]

cron