img image001 image001 image001 image001 image001 image001 image001 image001 image001 image001 image001 image001 image001 image001 image001

Planets Sun Sun Sun
Статистика раздачи
Автор: Снежана | Размер: 2.19 ГБ | Добавлен: 27 июл 2013
Раздают: 43    Качают: 2
Скачать торрент
Скачать торрент
Описание торрента

СообщениеДобавлено: 27 июл 2013 

#77

Год выпуска: 2005
Производство: США / 20th Century Fox Animation, Blue Sky Studios
Жанр: Фантастика, комедия, приключения, семейный, мультфильм
Продолжительность: 01:29:47
Перевод: Профессиональный (полное дублирование)
Субтитры: Английские, русские
Навигация по главам: Есть


Режиссер: Крис Уэдж, Карлос Салдана / Chris Uedzh, Carlos Saldana

В ролях: Паула Абдул, Холли Берри, Люсиль Блисс, Терри Брэдшоу, Джим Броудбент, Мел Брукс, Аманда Байнс, Дрю Кэри, Дженнифер Кулидж, Дилан Дентон и др.

О фильме: Действие фильма разворачивается в мире, населенном исключительно роботами. Как и в мире людей у них есть своя социальная лестница, свои герои и изгои. Молодой гений Родни мечтает сделать мир роботов лучше. А еще ему очень нравится одна молоденькая сексапильная роботша Каппи. Но на пути всех его планов стоит ведущий дизайнер роботов Биг Велд, принадлежащий к тому же сословию, что и Каппи…


Бюджет: $75 000 000





Качество: BDRip-AVC [Blu-Ray CEE]
Формат: MKV
Видео: H.264, 1056x572 (1,85:1), 23,976 fps, 2721 Кbps, 0.188 bit/pixel
Аудио#1: 48 kHz, AC3 Dolby Digital, 3/2 (L,C,R,l,r) + LFE ch, ~384.00 kbps avg | RUS
Аудио#2: 48 kHz, AC3 Dolby Digital, 3/2 (L,C,R,l,r) + LFE ch, ~384.00 kbps avg | ENG


Автор рипа:



Общее
Уникальный идентификатор : 206650544474200896675699632823193751135 (0x9B77727940DA2FA09EF9CB0D7056CE5F)
Полное имя : Roboty.2005.D.BDRip.x264.potroks.mkv
Формат : Matroska
Версия формата : Version 2
Размер файла : 2,19 Гбайт
Продолжительность : 1 ч. 29 м.
Общий поток : 3491 Кбит/сек
Название фильма : -=POTROKS=-
Дата кодирования : UTC 2013-04-30 07:33:40
Программа кодирования : mkvmerge v5.9.0 ('On The Loose') built on Dec 15 2012 16:39:58
Библиотека кодирования : libebml v1.3.0 + libmatroska v1.4.0

Видео
Идентификатор : 1
Формат : AVC
Формат/Информация : Advanced Video Codec
Профиль формата : High@L4.1
Параметр CABAC формата : Да
Параметр ReFrames формата : 11 кадров
Идентификатор кодека : V_MPEG4/ISO/AVC
Продолжительность : 1 ч. 29 м.
Битрейт : 2721 Кбит/сек
Ширина : 1056 пикселей
Высота : 572 пикселя
Соотношение сторон : 1,85:1
Режим частоты кадров : Постоянный
Частота кадров : 23,976 кадра/сек
Цветовое пространство : YUV
Субдискретизация насыщенности : 4:2:0
Битовая глубина : 8 бит
Тип развёртки : Прогрессивная
Бит/(Пиксели*Кадры) : 0.188
Размер потока : 1,66 Гбайт (76%)
Заголовок : Robots
Библиотека кодирования : x264 core 125 r2208 d9d2288
Настройки программы : cabac=1 / ref=11 / deblock=1:1:1 / analyse=0x3:0x133 / me=umh / subme=11 / psy=1 / psy_rd=0.20:0.05 / mixed_ref=1 / me_range=32 / chroma_me=1 / trellis=2 / 8x8dct=1 / cqm=0 / deadzone=21,11 / fast_pskip=0 / chroma_qp_offset=-2 / threads=9 / lookahead_threads=1 / sliced_threads=0 / nr=0 / decimate=1 / interlaced=0 / bluray_compat=0 / constrained_intra=0 / bframes=12 / b_pyramid=2 / b_adapt=2 / b_bias=0 / direct=3 / weightb=1 / open_gop=0 / weightp=2 / keyint=240 / keyint_min=23 / scenecut=40 / intra_refresh=0 / rc_lookahead=150 / rc=2pass / mbtree=1 / bitrate=2721 / ratetol=1.0 / qcomp=0.70 / qpmin=0 / qpmax=69 / qpstep=4 / cplxblur=20.0 / qblur=0.5 / vbv_maxrate=20000 / vbv_bufsize=25000 / nal_hrd=none / ip_ratio=1.35 / aq=1:0.70
Язык : English
Default : Да
Forced : Нет

Аудио #1
Идентификатор : 2
Формат : AC-3
Формат/Информация : Audio Coding 3
Расширение режима : CM (complete main)
Параметр Endianness формата : Big
Идентификатор кодека : A_AC3
Продолжительность : 1 ч. 29 м.
Вид битрейта : Постоянный
Битрейт : 384 Кбит/сек
Каналы : 6 каналов
Расположение каналов : Front: L C R, Side: L R, LFE
Частота : 48,0 КГц
Битовая глубина : 16 бит
Метод сжатия : С потерями
Размер потока : 247 Мбайт (11%)
Заголовок : Dub | DD 5.1 @ 384 kbps - BD CEE
Язык : Russian
Default : Да
Forced : Да

Аудио #2
Идентификатор : 3
Формат : AC-3
Формат/Информация : Audio Coding 3
Расширение режима : CM (complete main)
Параметр Endianness формата : Big
Идентификатор кодека : A_AC3
Продолжительность : 1 ч. 29 м.
Вид битрейта : Постоянный
Битрейт : 384 Кбит/сек
Каналы : 6 каналов
Расположение каналов : Front: L C R, Side: L R, LFE
Частота : 48,0 КГц
Битовая глубина : 16 бит
Метод сжатия : С потерями
Размер потока : 247 Мбайт (11%)
Заголовок : Original | DD 5.1 @ 384 kbps
Язык : English
Default : Нет
Forced : Нет

Текст #1
Идентификатор : 4
Формат : UTF-8
Идентификатор кодека : S_TEXT/UTF8
Идентификатор кодека/Информация : UTF-8 Plain Text
Язык : Russian
Default : Нет
Forced : Нет

Текст #2
Идентификатор : 5
Формат : UTF-8
Идентификатор кодека : S_TEXT/UTF8
Идентификатор кодека/Информация : UTF-8 Plain Text
Язык : English
Default : Нет
Forced : Нет

Меню
00:00:00.000 : :Rivet Town's Newest Arrival
00:02:03.540 : :The Copperbottom Boy
00:04:24.138 : :The World of Bigweld
00:07:17.311 : :The Inventor
00:10:50.983 : :Follow Your Dream
00:13:34.396 : :Robot City
00:15:52.826 : :The Crosstown Express
00:19:04.893 : :Those Days Are Over
00:22:42.611 : :Rodney Drops In
00:24:44.191 : :Magnetic Personality
00:26:44.394 : :Madame Gasket
00:29:24.512 : :Scroungers
00:33:03.773 : :Outmoded
00:34:58.346 : :The Rusties
00:36:36.444 : :Aunt Fanny's Boarding House
00:41:03.335 : :Repairs By Rodney
00:45:55.043 : :Going to the Bigweld Ball
00:49:53.198 : :Troublemaker
00:53:42.344 : :Looking for Mr. Bigweld
00:59:09.003 : :Fender Under Fire
01:01:02.992 : :Dad's Advice
01:04:39.875 : :Bigweld's Back!
01:06:54.760 : :Rodney on the Run
01:12:24.631 : :Robot Rebellion
01:16:12.901 : :See a Need, Fill a Need
01:19:00.235 : :My Right-Hand Bot
01:21:24.212 : :Get Up Offa That Thing
01:23:39.764 : :End Titles

x264 [info]: frame I:1297 Avg QP:14.62 size: 87997
x264 [info]: frame P:33112 Avg QP:18.42 size: 25005
x264 [info]: frame B:94765 Avg QP:22.07 size: 9397
x264 [info]: consecutive B-frames: 2.6% 5.0% 15.5% 39.1% 14.9% 18.6% 1.8% 1.0% 0.5% 0.4% 0.2% 0.3% 0.2%
x264 [info]: mb I I16..4: 10.2% 41.2% 48.7%
x264 [info]: mb P I16..4: 2.6% 10.7% 4.3% P16..4: 25.1% 18.7% 8.6% 2.3% 0.3% skip:27.4%
x264 [info]: mb B I16..4: 0.5% 2.2% 0.8% B16..8: 20.3% 12.4% 3.0% direct: 3.2% skip:57.6% L0:40.3% L1:41.3% BI:18.4%
x264 [info]: 8x8 transform intra:59.2% inter:43.0%
x264 [info]: direct mvs spatial:93.6% temporal:6.4%
x264 [info]: coded y,uvDC,uvAC intra: 72.2% 75.3% 51.2% inter: 14.7% 11.0% 4.1%
x264 [info]: i16 v,h,dc,p: 16% 19% 14% 51%
x264 [info]: i8 v,h,dc,ddl,ddr,vr,hd,vl,hu: 15% 17% 12% 7% 9% 9% 10% 9% 12%
x264 [info]: i4 v,h,dc,ddl,ddr,vr,hd,vl,hu: 17% 16% 11% 7% 11% 10% 10% 8% 10%
x264 [info]: i8c dc,h,v,p: 34% 30% 19% 17%
x264 [info]: Weighted P-Frames: Y:1.6% UV:0.9%
x264 [info]: ref P L0: 49.2% 8.1% 16.1% 7.0% 5.0% 4.1% 3.2% 2.0% 1.7% 1.7% 1.6% 0.4% 0.0%
x264 [info]: ref B L0: 78.3% 8.9% 4.4% 2.4% 1.9% 1.3% 1.3% 0.9% 0.5% 0.3%
x264 [info]: ref B L1: 93.6% 6.4%
x264 [info]: kb/s:2721.18





   Похожие торренты   Торрент   Размер 
В этой теме нет новых непрочитанных сообщений. Роботы / Robots (2005) BDRip от HQCLUB

66 | 21

1.73 ГБ

В этой теме нет новых непрочитанных сообщений. Роботы / Robots (2005) BDRip-AVC от 0ptimus | D, P2

69 | 6

2.83 ГБ

В этой теме нет новых непрочитанных сообщений. Роботы / Robots (2005) BDRip 1080p

84 | 41

4.37 ГБ

В этой теме нет новых непрочитанных сообщений. Роботы / Robots (2005) BDRip (1080p) | D, P2

25 | 5

7.82 ГБ

В этой теме нет новых непрочитанных сообщений. Роботы / Robots (2005) BDRip от HELLYWOOD

57 | 15

1.73 ГБ

В этой теме нет новых непрочитанных сообщений. Роботы / Robots (2005) BDRip-AVC | iPad

46 | 24

1.99 ГБ

В этой теме нет новых непрочитанных сообщений. Роботы / Robots (2005) BDRip (720p) от 0ptimus | D, P2

2 | 2

6.87 ГБ




Вы не можете начинать темы
Вы не можете отвечать на сообщения
Вы не можете редактировать свои сообщения
Вы не можете удалять свои сообщения
Вы не можете добавлять вложения

Перейти:  
Для Мосгорсуда, Роскомнадзора и рекламодателей: mosgorsud-torrent[собачка]yandex.ru
 Вход
ppkBB3cker v.2 © 2008-2014 @ PPK
[ Time : 0.032s | 16 Queries | GZIP : Off ]

Торрент трекер RUTOR.IN, Не можете зайти на rutor.org? Какой новый адрес рутор? Какое зеркало рутор? Не работает rutor.org и зеркала? Тогда наш торрент специально для вас. Rutor.in неофициальное зеркало rutor. В случае если у Вас заблокирован rutor или вдруг Вы не можете на него зайти, то Вы без труда сможете скачать бесплатно и без рекламы последние новинки кино, игр, сериалов и прочего у нас, на Rutor.in. Не нужно использовать прокси, чтобы зайти на рутор, достаточно воспользоваться нашим ресурсом. Все новые фильмы, игры, сериалы, книги и музыка за 2013 и 2014 годы через торрент бесплатно. Скачивайте фильмы в хорошем качестве, игры для пк, xbox, playstation без регистрации. У нас вы найдете новые Зарубежные сериалы и Русские сериалы 2013, 2014, 2015 годов. Оставайтесь с нами, качайте любимые фильмы, игры, сериалы, книги и музыку.