img image001 image001 image001 image001 image001 image001 image001 image001 image001 image001 image001 image001 image001 image001 image001

Planets Sun Sun Sun
Статистика раздачи
Автор: Снежана | Размер: 3.74 ГБ | Добавлен: 27 июл 2013
Раздают: 2    Качают: 2
Скачать торрент
Скачать торрент
Описание торрента

СообщениеДобавлено: 27 июл 2013 

#77

Информация о фильме
Название: Битва за планету Терра
Оригинальное название: Battle for Terra
Год выхода: 2009
Жанр: мультфильм, фантастика, боевик, приключения, военный
Режиссер: Аристоменис Тсирбас
В ролях: Чед Аллен, Розанна Аркетт, Билл Бирч, Брук Блум, Том Коннолли, Брайан Кокс, Дэвид Кросс, Беверли Д`Анджело, Джим Девоти, Крис Эванс

О фильме:
Когда на планете Земля пересохли все реки, исчезли леса, а воздух превратился в пыль, люди исколесили Галактику, чтобы найти себе новый дом. Прекрасная планета Терра стала надеждой людей на спасение. Хитроумное устройство землян Терраформер должен превратить Терру в рай для людей и кошмар для коренных жителей. Катастрофа для террианцев неизбежна, они обречены.

Счет идет на дни и часы. И все бы шло по плану, если не одна случайность. Девочка с Терры Молу подбирает раненого пилота — землянина. Они становятся лучшими друзьями и вместе находят хитрый способ спасти Терру — последнюю живую планету Галактики. Они не подозревают, что сразу окажутся в центре бурных, опасных, веселых и удивительных событий…

Примечание: в фильме есть три вставки 3D ~ по 6 минут


Страна: США
Продолжительность: 01:15:46
Перевод: Профессиональный (полное дублирование)

Файл
Кодек: MPEG2
Качество: DVD5 | 3D: Anaglyph
Видео: PAL 16:9 (720x576) VBR 5806 Кбит/сек
Звук: Russian (Dolby AC3, 6 ch, 448 Кбит/сек, 48,0 КГц)
Субтитры: нет



Общее
Полное имя : D:ТорентыBitva.za.planetu.Terra.2009VTS_01_1.VOB
Формат : MPEG-PS
Размер файла : 1024 Мбайт
Продолжительность : 22 м.
Общий поток : 6381 Кбит/сек

Видео
Идентификатор : 224 (0xE0)
Формат : MPEG Video
Версия формата : Version 2
Профиль формата : Main@Main
Параметр BVOP формата : Нет
Параметр матрицы формата : Выборочная
Параметр GOP формата : Variable
Продолжительность : 22 м.
Битрейт : 5806 Кбит/сек
Максимальный битрейт : 8000 Кбит/сек
Ширина : 720 пикселей
Высота : 576 пикселей
Соотношение сторон : 16:9
Частота кадров : 25,000 кадров/сек
Стандарт вещания : PAL
Цветовое пространство : YUV
Субдискретизация насыщенности : 4:2:0
Битовая глубина : 8 бит
Тип развёртки : Прогрессивная
Порядок развёртки : Верхнее поле первое
Метод сжатия : С потерями
Бит/(Пиксели*Кадры) : 0.560
Размер потока : 932 Мбайт (91%)
Основные цвета : BT.601 PAL
Характеристики трансфера : BT.470 System B, BT.470 System G
Коэффициенты матрицы : BT.601

Аудио
Идентификатор : 189 (0xBD)-128 (0x80)
Формат : AC-3
Формат/Информация : Audio Coding 3
Расширение режима : CM (complete main)
Параметр Endianness формата : Big
Режим смешивания : DVD-Video
Продолжительность : 22 м.
Вид битрейта : Постоянный
Битрейт : 448 Кбит/сек
Каналы : 6 каналов
Расположение каналов : Front: L C R, Side: L R, LFE
Частота : 48,0 КГц
Битовая глубина : 16 бит
Метод сжатия : С потерями
Размер потока : 71,9 Мбайт (7%)

Меню




   Похожие торренты   Торрент   Размер 
В этой теме нет новых непрочитанных сообщений. Битва за планету Терра / Battle for Terra (2009) DVDRip

0 | 2

1.36 ГБ

В этой теме нет новых непрочитанных сообщений. Битва за планету Терра / Battle for Terra (2009) BDRip от HQCLUB

197 | 19

1.46 ГБ

В этой теме нет новых непрочитанных сообщений. Битва за планету Терра 3D / Battle for Terra 3D (2009) BDRip 1080p | 3D

0 | 2

3.62 ГБ

В этой теме нет новых непрочитанных сообщений. Битва за планету Терра / Battle for Terra (2009) BDRip | 3D-Video | Crop

3 | 3

4.71 ГБ

В этой теме нет новых непрочитанных сообщений. Битва за планету Терра 3D / Battle for Terra 3D (2009) DVDRip от TTracker | 3D VIDEO [Анаглиф]

4 | 3

1.31 ГБ

В этой теме нет новых непрочитанных сообщений. Битва за планету Терра / Battle for Terra (2007) BDRip 1080p

11 | 4

4.37 ГБ

В этой теме нет новых непрочитанных сообщений. Битва за планету Терра / Battle for Terra (2007) BDRip 720p

82 | 25

2.09 ГБ




Вы не можете начинать темы
Вы не можете отвечать на сообщения
Вы не можете редактировать свои сообщения
Вы не можете удалять свои сообщения
Вы не можете добавлять вложения

Перейти:  
Для Мосгорсуда, Роскомнадзора и рекламодателей: mosgorsud-torrent[собачка]yandex.ru
 Вход
ppkBB3cker v.2 © 2008-2014 @ PPK
[ Time : 0.034s | 14 Queries | GZIP : Off ]

Торрент трекер RUTOR.IN, Не можете зайти на rutor.org? Какой новый адрес рутор? Какое зеркало рутор? Не работает rutor.org и зеркала? Тогда наш торрент специально для вас. Rutor.in неофициальное зеркало rutor. В случае если у Вас заблокирован rutor или вдруг Вы не можете на него зайти, то Вы без труда сможете скачать бесплатно и без рекламы последние новинки кино, игр, сериалов и прочего у нас, на Rutor.in. Не нужно использовать прокси, чтобы зайти на рутор, достаточно воспользоваться нашим ресурсом. Все новые фильмы, игры, сериалы, книги и музыка за 2013 и 2014 годы через торрент бесплатно. Скачивайте фильмы в хорошем качестве, игры для пк, xbox, playstation без регистрации. У нас вы найдете новые Зарубежные сериалы и Русские сериалы 2013, 2014, 2015 годов. Оставайтесь с нами, качайте любимые фильмы, игры, сериалы, книги и музыку.