img image001 image001 image001 image001 image001 image001 image001 image001 image001 image001 image001 image001 image001 image001 image001

Planets Sun Sun Sun
Статистика раздачи
Автор: Снежана | Размер: 15.9 ГБ | Добавлен: 27 июл 2013
Раздают: 11    Качают: 4
Скачать торрент
Скачать торрент
Описание торрента

СообщениеДобавлено: 27 июл 2013 

#77

Тачки: Дилогия / Cars: Dilogy (2006-2011) BDRip 1080p от NoLimits-Team


Информация о фильме
Название: Тачки: Дилогия
Оригинальное название: Cars: Dilogy
Год выхода: 2006 | 2011
Жанр: Комедия, семейный, мультфильм, спорт
Режиссер: Джон Лассетер, Брэд Льюис
Продолжительность: 01:56:36 | 01:47:01
Релиз Группа | Автор Рипа:

#77
Информация о фильме
Название: Тачки
Оригинальное название: Crank
Год выхода: 2006
Жанр: комедия, семейный, мультфильм, спорт
Режиссер: Джон Лассетер
Выпущено: США
Продолжительность: 01:56:36
Перевод: Дублированный
В ролях: Оуэн Уилсон, Пол Ньюман, Бонни Хант, Ларри Кейбл Гай, Чич Марин, Тони Шалхуб, Гуидо Куарони, Дженифер Льюис, Пол Дули, Майкл Уоллис, Джордж Карлин, Кэтрин Хелмонд, Джон Ратценбергер, Джо Рэнфт, Майкл Китон, Ричард Петти, Джереми Пивен, Боб Костас, Даррел Уалтрип, Ричард Кайнд, Эди МакКлерг

Сюжет фильма
Неукротимый всвоем желании всегда и во всем побеждать гоночный автомобиль "Молния" Маккуин вдруг обнаруживает, что сбился с пути и застрял в маленьком захолустном городке Радиатор-Спрингс, что находится где-то на трассе 66 в Калифорнии. Участвуя в гонках на Кубок Поршня, где ему противостояли два очень опытных соперника, Маккуин совершенно не ожидал, что отныне ему придется общаться с персонажами совсем иного рода. Это, например, Салли — шикарный Порше 2002-го года выпуска, Док Хадсон — легковушка модели «Гудзон Хорнет», 1951-го года выпуска или Метр — ржавый грузовичок-эвакуатор. И все они помогают Маккуину понять, что в мире существуют некоторые более важные вещи, чем слава, призы и спонсоры…

Файл
Качество: BDRip 1080p (DVD9) (исходник Blu-Ray)
Видео: 1920x800, 8476 Кбит/сек, 23,976 кадр/сек, AVC, x264, High@L4.1, 2.40:1, 0.230 Бит/[Пиксели*Кадры], 2pass
Аудио 1: AC-3, 640 Кбит/сек, 6 канала(ов), 48,0 КГц - Дублированный / Русский
Аудио 2: AC-3, 640 Кбит/сек, 6 канала(ов), 48,0 КГц - Оригинал / Английский
Субтитры: Русские | Полные
Чаптеры: Есть





Format : Matroska
Format version : Version 4 / Version 2
File size : 7.96 GiB
Duration : 1h 56mn
Overall bit rate : 9 769 Kbps
Movie name : Тачки.(2006).BDRip.1080p.(DVD9).[NoLimits-Team]
Encoded date : UTC 2013-04-28 12:17:40
Writing application : mkvmerge v6.0.0 ('Coming Up For Air') built on Jan 20 2013 09:52:00
Writing library : libebml v1.3.0 + libmatroska v1.4.0

Video
ID : 1
Format : AVC
Format/Info : Advanced Video Codec
Format profile : High@L4.1
Format settings, CABAC : Yes
Format settings, ReFrames : 5 frames
Codec ID : V_MPEG4/ISO/AVC
Duration : 1h 56mn
Bit rate : 8 476 Kbps
Width : 1 920 pixels
Height : 800 pixels
Display aspect ratio : 2.40:1
Frame rate mode : Constant
Frame rate : 23.976 fps
Color space : YUV
Chroma subsampling : 4:2:0
Bit depth : 8 bits
Scan type : Progressive
Bits/(Pixel*Frame) : 0.230
Stream size : 6.76 GiB (85%)
Title : Тачки.(2006).BDRip.1080p.(DVD9).[NoLimits-Team]
Writing library : x264 core 130 r2273 b3065e6
Encoding settings : cabac=1 / ref=5 / deblock=1:0:0 / analyse=0x3:0x133 / me=umh / subme=11 / psy=1 / psy_rd=1.00:0.00 / mixed_ref=1 / me_range=64 / chroma_me=1 / trellis=2 / 8x8dct=1 / cqm=0 / deadzone=21,11 / fast_pskip=0 / chroma_qp_offset=-2 / threads=9 / lookahead_threads=2 / sliced_threads=0 / nr=0 / decimate=1 / interlaced=0 / bluray_compat=0 / constrained_intra=0 / bframes=12 / b_pyramid=2 / b_adapt=2 / b_bias=0 / direct=3 / weightb=1 / open_gop=0 / weightp=2 / keyint=240 / keyint_min=23 / scenecut=40 / intra_refresh=0 / rc_lookahead=60 / rc=2pass / mbtree=1 / bitrate=8476 / ratetol=1.0 / qcomp=0.60 / qpmin=0 / qpmax=69 / qpstep=4 / cplxblur=20.0 / qblur=0.5 / ip_ratio=1.40 / aq=1:1.00
Language : English
Default : Yes
Forced : No

Audio #1
ID : 2
Format : AC-3
Format/Info : Audio Coding 3
Mode extension : CM (complete main)
Format settings, Endianness : Big
Codec ID : A_AC3
Duration : 1h 56mn
Bit rate mode : Constant
Bit rate : 640 Kbps
Channel(s) : 6 channels
Channel positions : Front: L C R, Side: L R, LFE
Sampling rate : 48.0 KHz
Bit depth : 16 bits
Compression mode : Lossy
Stream size : 534 MiB (7%)
Title : Дублированный
Language : Russian
Default : Yes
Forced : No

Audio #2
ID : 3
Format : AC-3
Format/Info : Audio Coding 3
Mode extension : CM (complete main)
Format settings, Endianness : Big
Codec ID : A_AC3
Duration : 1h 56mn
Bit rate mode : Constant
Bit rate : 640 Kbps
Channel(s) : 6 channels
Channel positions : Front: L C R, Side: L R, LFE
Sampling rate : 48.0 KHz
Bit depth : 16 bits
Compression mode : Lossy
Stream size : 534 MiB (7%)
Title : Английский
Language : English
Default : No
Forced : No

Text
ID : 4
Format : PGS
Muxing mode : zlib
Codec ID : S_HDMV/PGS
Codec ID/Info : The same subtitle format used on BDs/HD-DVDs
Title : Русские (полные)
Language : Russian
Default : No
Forced : No

Menu
00:00:00.000 : :Chapter 01
00:09:27.692 : :Chapter 02
00:13:38.108 : :Chapter 03
00:16:09.134 : :Chapter 04
00:19:42.764 : :Chapter 05
00:24:23.170 : :Chapter 06
00:27:16.843 : :Chapter 07
00:28:02.055 : :Chapter 08
00:29:31.436 : :Chapter 09
00:33:47.567 : :Chapter 10
00:35:43.558 : :Chapter 11
00:41:40.456 : :Chapter 12
00:45:45.868 : :Chapter 13
00:48:30.324 : :Chapter 14
00:50:28.775 : :Chapter 15
00:54:30.475 : :Chapter 16
00:57:37.495 : :Chapter 17
01:01:19.050 : :Chapter 18
01:02:48.389 : :Chapter 19
01:05:32.553 : :Chapter 20
01:07:32.882 : :Chapter 21
01:09:39.091 : :Chapter 22
01:11:17.022 : :Chapter 23
01:14:51.236 : :Chapter 24
01:15:47.584 : :Chapter 25
01:20:03.924 : :Chapter 26
01:22:11.468 : :Chapter 27
01:24:48.583 : :Chapter 28
01:27:21.527 : :Chapter 29
01:32:26.791 : :Chapter 30
01:46:07.402 : :Chapter 31
01:48:21.620 : :Chapter 32

#77
Информация о фильме
Название: Тачки 2
Оригинальное название: Cars 2
Год выхода: 2011
Жанр: мультфильм, комедия, приключения, семейный
Режиссер: Джон Лассетер, Брэд Льюис
Выпущено: США
Продолжительность: 01:47:01
Перевод: Дублированный
В ролях: Оуэн Уилсон, Ларри Кейбл Гай, Майкл Кейн, Эмили Мортимер, Эдди Иззард, Джон Туртурро, Брент Мусбургер, Джо Мантенья, Томас Кречманн, Питер Джекобсон

Сюжет фильма
Молния МакКуин и его друг Мэтр отправляются в международное путешествие - когда МакКуин получает шанс участвовать в соревнованиях для самых быстрых машин в мире, Мировом Гран-При. Этапы этих престижных гонок заведут друзей в Токио, на набережные Парижа, на побережье Италии, и на улицы туманного Лондона.

Файл
Качество: BDRip 1080p (DVD9) (исходник Blu-Ray)
Видео: 1920x800, 9350 Кбит/сек, 23,976 кадр/сек, AVC, x264, High@L4.1, 2.40:1, 0.254 Бит/[Пиксели*Кадры], 2pass
Аудио 1: AC-3, 640 Кбит/сек, 6 канала(ов), 48,0 КГц - Дублированный / Русский
Аудио 2: AC-3, 640 Кбит/сек, 6 канала(ов), 48,0 КГц - Оригинал / Английский
Субтитры: Русские | Полные
Чаптеры: Есть





Format : Matroska
Format version : Version 4 / Version 2
File size : 7.95 GiB
Duration : 1h 47mn
Overall bit rate : 10.6 Mbps
Movie name : Тачки.2.(2011).BDRip.1080p.(DVD9).[NoLimits-Team]
Encoded date : UTC 2013-05-01 12:30:11
Writing application : mkvmerge v6.0.0 ('Coming Up For Air') built on Jan 20 2013 09:52:00
Writing library : libebml v1.3.0 + libmatroska v1.4.0

Video
ID : 1
Format : AVC
Format/Info : Advanced Video Codec
Format profile : High@L4.1
Format settings, CABAC : Yes
Format settings, ReFrames : 5 frames
Codec ID : V_MPEG4/ISO/AVC
Duration : 1h 47mn
Bit rate : 9 350 Kbps
Width : 1 920 pixels
Height : 800 pixels
Display aspect ratio : 2.40:1
Frame rate mode : Constant
Frame rate : 23.976 fps
Color space : YUV
Chroma subsampling : 4:2:0
Bit depth : 8 bits
Scan type : Progressive
Bits/(Pixel*Frame) : 0.254
Stream size : 6.83 GiB (86%)
Title : Тачки.2.(2011).BDRip.1080p.(DVD9).[NoLimits-Team]
Writing library : x264 core 130 r2273 b3065e6
Encoding settings : cabac=1 / ref=5 / deblock=1:0:0 / analyse=0x3:0x133 / me=umh / subme=11 / psy=1 / psy_rd=1.00:0.00 / mixed_ref=1 / me_range=64 / chroma_me=1 / trellis=2 / 8x8dct=1 / cqm=0 / deadzone=21,11 / fast_pskip=0 / chroma_qp_offset=-2 / threads=9 / lookahead_threads=2 / sliced_threads=0 / nr=0 / decimate=1 / interlaced=0 / bluray_compat=0 / constrained_intra=0 / bframes=12 / b_pyramid=2 / b_adapt=2 / b_bias=0 / direct=3 / weightb=1 / open_gop=0 / weightp=2 / keyint=240 / keyint_min=23 / scenecut=40 / intra_refresh=0 / rc_lookahead=60 / rc=2pass / mbtree=1 / bitrate=9350 / ratetol=1.0 / qcomp=0.60 / qpmin=0 / qpmax=69 / qpstep=4 / cplxblur=20.0 / qblur=0.5 / ip_ratio=1.40 / aq=1:1.00
Language : English
Default : Yes
Forced : No

Audio #1
ID : 2
Format : AC-3
Format/Info : Audio Coding 3
Mode extension : CM (complete main)
Format settings, Endianness : Big
Codec ID : A_AC3
Duration : 1h 47mn
Bit rate mode : Constant
Bit rate : 640 Kbps
Channel(s) : 6 channels
Channel positions : Front: L C R, Side: L R, LFE
Sampling rate : 48.0 KHz
Bit depth : 16 bits
Compression mode : Lossy
Stream size : 490 MiB (6%)
Title : Дублированный
Language : Russian
Default : Yes
Forced : No

Audio #2
ID : 3
Format : AC-3
Format/Info : Audio Coding 3
Mode extension : CM (complete main)
Format settings, Endianness : Big
Codec ID : A_AC3
Duration : 1h 47mn
Bit rate mode : Constant
Bit rate : 640 Kbps
Channel(s) : 6 channels
Channel positions : Front: L C R, Side: L R, LFE
Sampling rate : 48.0 KHz
Bit depth : 16 bits
Compression mode : Lossy
Stream size : 490 MiB (6%)
Title : Английский
Language : English
Default : No
Forced : No

Text
ID : 4
Format : UTF-8
Codec ID : S_TEXT/UTF8
Codec ID/Info : UTF-8 Plain Text
Title : Русские (полные)
Language : Russian
Default : No
Forced : No

Menu
00:00:00.000 : :Chapter 01
00:01:29.172 : :Chapter 02
00:04:47.578 : :Chapter 03
00:07:43.671 : :Chapter 04
00:12:07.893 : :Chapter 05
00:17:48.942 : :Chapter 06
00:20:01.324 : :Chapter 07
00:22:51.536 : :Chapter 08
00:26:34.634 : :Chapter 09
00:30:30.161 : :Chapter 10
00:32:41.959 : :Chapter 11
00:34:13.509 : :Chapter 12
00:37:15.566 : :Chapter 13
00:40:44.149 : :Chapter 14
00:42:53.153 : :Chapter 15
00:46:18.567 : :Chapter 16
00:46:57.939 : :Chapter 17
00:49:48.526 : :Chapter 18
00:53:56.399 : :Chapter 19
00:54:57.251 : :Chapter 20
00:57:36.202 : :Chapter 21
00:59:27.730 : :Chapter 22
01:02:16.941 : :Chapter 23
01:05:56.285 : :Chapter 24
01:12:31.763 : :Chapter 25
01:14:05.899 : :Chapter 26
01:15:24.185 : :Chapter 27
01:21:12.992 : :Chapter 28
01:23:22.246 : :Chapter 29
01:29:06.924 : :Chapter 30
01:31:48.126 : :Chapter 31
01:32:41.221 : :Chapter 32
01:38:18.600 : :Chapter 33



Внимание!
Видеоряд не локализован.



   Похожие торренты   Торрент   Размер 
В этой теме нет новых непрочитанных сообщений. Тачки: Дилогия / Cars: Dilogy (2006-2011) BDRip 720p от NoLimits-Team

26 | 6

8.74 ГБ

В этой теме нет новых непрочитанных сообщений. Тачки: Дилогия / Cars Dilogy (2006-2011) BDRip-AVC от HQCLUB

59 | 8

4.97 ГБ

В этой теме нет новых непрочитанных сообщений. Тачки: Дилогия / Cars: Dilogy (2006-2011) BDRip-AVC от Leonardo and Scarabey

409 | 73

4.59 ГБ

В этой теме нет новых непрочитанных сообщений. Адреналин: Дилогия / Crank: Dilogy (2006-2009) BDRip 1080p от NoLimits-Team

10 | 22

15.89 ГБ

В этой теме нет новых непрочитанных сообщений. Сайлент Хилл: Дилогия / Silent Hill: Dilogy (2006-2012) BDRip 1080p от NoLimits-Team

45 | 20

15.89 ГБ

В этой теме нет новых непрочитанных сообщений. Кунг-фу Панда: Дилогия / Kung Fu Panda: Dilogy (2008-2011) BDRip 1080p от NoLimits-Team

80 | 10

15.9 ГБ

В этой теме нет новых непрочитанных сообщений. Агент Джонни Инглиш: Дилогия / Johnny English: Dilogy (2003-2011) BDRip 1080p от NoLimits-Team

10 | 11

15.89 ГБ




Вы не можете начинать темы
Вы не можете отвечать на сообщения
Вы не можете редактировать свои сообщения
Вы не можете удалять свои сообщения
Вы не можете добавлять вложения

Перейти:  
Для Мосгорсуда, Роскомнадзора и рекламодателей: mosgorsud-torrent[собачка]yandex.ru
 Вход
ppkBB3cker v.2 © 2008-2014 @ PPK
[ Time : 0.031s | 15 Queries | GZIP : Off ]

Торрент трекер RUTOR.IN, Не можете зайти на rutor.org? Какой новый адрес рутор? Какое зеркало рутор? Не работает rutor.org и зеркала? Тогда наш торрент специально для вас. Rutor.in неофициальное зеркало rutor. В случае если у Вас заблокирован rutor или вдруг Вы не можете на него зайти, то Вы без труда сможете скачать бесплатно и без рекламы последние новинки кино, игр, сериалов и прочего у нас, на Rutor.in. Не нужно использовать прокси, чтобы зайти на рутор, достаточно воспользоваться нашим ресурсом. Все новые фильмы, игры, сериалы, книги и музыка за 2013 и 2014 годы через торрент бесплатно. Скачивайте фильмы в хорошем качестве, игры для пк, xbox, playstation без регистрации. У нас вы найдете новые Зарубежные сериалы и Русские сериалы 2013, 2014, 2015 годов. Оставайтесь с нами, качайте любимые фильмы, игры, сериалы, книги и музыку.