img image001 image001 image001 image001 image001 image001 image001 image001 image001 image001 image001 image001 image001 image001 image001

Planets Sun Sun Sun
Статистика раздачи
Автор: Снежана | Размер: 744.57 МБ | Добавлен: 27 июл 2013
Раздают: 26    Качают: 2
Скачать торрент
Скачать торрент
Описание торрента

СообщениеДобавлено: 27 июл 2013 

#77
Страна: США
Жанр: мультфильм, мюзикл, фэнтези, комедия, приключения, семейный
Продолжительность: 01:32:46
Год выпуска: 1997

Перевод: Профессиональный (дублированный) лицензия
Cубтитры: нет

Режиссёр: Рон Клементс, Джон Маскер / Ron Clements, John Musker

Роли озвучивали: Тейт Донован, Джошуа Китон, Роджер Барт, Дэнни ДеВито, Джеймс Вудс, Сьюзэн Иган, Боб Голдтуэйт, Мэтт Фрюэр, Рип Торн, Саманта Эггар
Роли дублировали: Родион Приходько, Игорь Балакирев, Ярослав Иванов, Борис Хвошнянский, Сергей Мардарь

Описание: Аид — властитель загробного мира. Много лет назад он был фактически сослан своим старшим братом Зевсом в глубины Ада и теперь намерен наверстать упущенное, собрав армию монстров и захватив Олимп. Единственный, кто может помешать Аиду — сын Зевса, юный Геркулес, поэтому прислужники злодея похищают младенца и превращают его в простого смертного.
Спустя много лет юноша узнает о своем происхождении и ставит целью вернуться домой, но для этого ему придется совершить немало подвигов и стать настоящим героем. Но, как выясняется, даже победы над силами зла недостаточно, чтобы вернуть божественное начало…







Тип релиза: HDTVRip
Контейнер: AVI
Видео кодек: XviD
Аудио кодек: MP3
Видео: 688x384 (1.79:1), 23.976 fps, XviD build 50 ~985 kbps avg, 0.16 bit/pixel
Аудио: 48 kHz, MPEG Layer 3, 2 ch, ~128.00 kbps avg

Раздача от:


D:Hercules.1997.HDTVRip [YTN] by dexter lex.avi
General
Complete name : D:Hercules.1997.HDTVRip [YTN] by dexter lex.avi
Format : AVI
Format/Info : Audio Video Interleave
File size : 745 MiB
Duration : 1h 32mn
Overall bit rate : 1 122 Kbps
Writing application : VirtualDubMod 1.5.10.3 | www.virtualdub-fr.org || (build 2550/release)
Writing library : VirtualDubMod build 2550/release
Video #0
ID : 0
Format : MPEG-4 Visual
Format profile : Advanced Simple@L5
Format settings, BVOP : 1
Format settings, QPel : No
Format settings, GMC : No warppoints
Format settings, Matrix : Custom
Codec ID : XVID
Codec ID/Hint : XviD
Duration : 1h 32mn
Bit rate : 985 Kbps
Width : 688 pixels
Height : 384 pixels
Display aspect ratio : 1.79:1
Frame rate : 23.976 fps
Color space : YUV
Chroma subsampling : 4:2:0
Bit depth : 8 bits
Scan type : Progressive
Compression mode : Lossy
Bits/(Pixel*Frame) : 0.155
Stream size : 653 MiB (88%)
Writing library : XviD 1.2.1 (UTC 2008-12-04)
Audio #1
ID : 1
Format : MPEG Audio
Format version : Version 1
Format profile : Layer 3
Codec ID : 55
Codec ID/Hint : MP3
Duration : 1h 32mn
Bit rate mode : Constant
Bit rate : 128 Kbps
Channel(s) : 2 channels
Sampling rate : 48.0 KHz
Compression mode : Lossy
Stream size : 84.9 MiB (11%)
Alignment : Aligned on interleaves
Interleave, duration : 42 ms (1.00 video frame)
Interleave, preload duration : 504 ms
Writing library : LAME3.99r
Encoding settings : -m s -V 4 -q 2 -lowpass 17 -b 128



   Похожие торренты   Торрент   Размер 
В этой теме нет новых непрочитанных сообщений. Геркулес / Hercules (1997) DVDRip от Youtracker | D

22 | 3

1.46 ГБ

В этой теме нет новых непрочитанных сообщений. Геркулес / Hercules (1997) DVDRip-AVC от Youtracker | D

41 | 3

1.46 ГБ

В этой теме нет новых непрочитанных сообщений. Геркулес / Hercules (1997) DVD9 от Youtracker | D | Лицензия

3 | 2

7.09 ГБ

В этой теме нет новых непрочитанных сообщений. Геркулес на Олимпе / Hercules (1997) DVD5 от Youtracker

0 | 2

2.49 ГБ

В этой теме нет новых непрочитанных сообщений. Геркулес / Hercules (1997) HDTVRip 720p

3 | 4

3.29 ГБ

В этой теме нет новых непрочитанных сообщений. Геркулес / Hercules (1997) HDTVRip (720p) от NOLIMITS-TEAM

76 | 1

2.16 ГБ

В этой теме нет новых непрочитанных сообщений. Геркулес / Hercules (1997) DVDRip

29 | 4

744.17 МБ




Вы не можете начинать темы
Вы не можете отвечать на сообщения
Вы не можете редактировать свои сообщения
Вы не можете удалять свои сообщения
Вы не можете добавлять вложения

Перейти:  
Для Мосгорсуда, Роскомнадзора и рекламодателей: mosgorsud-torrent[собачка]yandex.ru
 Вход
ppkBB3cker v.2 © 2008-2014 @ PPK
[ Time : 0.043s | 14 Queries | GZIP : Off ]

Торрент трекер RUTOR.IN, Не можете зайти на rutor.org? Какой новый адрес рутор? Какое зеркало рутор? Не работает rutor.org и зеркала? Тогда наш торрент специально для вас. Rutor.in неофициальное зеркало rutor. В случае если у Вас заблокирован rutor или вдруг Вы не можете на него зайти, то Вы без труда сможете скачать бесплатно и без рекламы последние новинки кино, игр, сериалов и прочего у нас, на Rutor.in. Не нужно использовать прокси, чтобы зайти на рутор, достаточно воспользоваться нашим ресурсом. Все новые фильмы, игры, сериалы, книги и музыка за 2013 и 2014 годы через торрент бесплатно. Скачивайте фильмы в хорошем качестве, игры для пк, xbox, playstation без регистрации. У нас вы найдете новые Зарубежные сериалы и Русские сериалы 2013, 2014, 2015 годов. Оставайтесь с нами, качайте любимые фильмы, игры, сериалы, книги и музыку.