img image001 image001 image001 image001 image001 image001 image001 image001 image001 image001 image001 image001 image001 image001 image001

Planets Sun Sun Sun
Статистика раздачи
Автор: Снежана | Размер: 2.19 ГБ | Добавлен: 27 июл 2013
Раздают: 61    Качают: 7
Скачать торрент
Скачать торрент
Описание торрента

СообщениеДобавлено: 27 июл 2013 

#77

Год выпуска: 2006
Производство: США / Warner Bros. Animation, Toon City Inc., Turner Entertainment
Жанр: Мультфильм, комедия, семейный
Продолжительность: 01:11:30
Перевод: Профессиональный (полное дублирование)
Субтитры: Английские, русские
Навигация по главам: Есть


Режиссер: Скотт Джеральдс / Scott Jeralds

В ролях: Марк Хэмилл, Кэти Нэджими, Чарльз Нельсон Рейли, Кевин Майкл Ричардсон, Уоллес Шоун

О фильме: Это хулиганское путешествие затеял Том, когда отправился в плавание на непритязательной лодке за самым известным и ужасным пиратом морей Капитаном Рэдом. Устав драить палубу, Том думает, что удача изменила ему, но тут неожиданно всплывает мистическая бутылка, в которой хранится карта сокровищ.
Мечта Тома найти сокровище и забрать его себе, похоже, невыполнима - в бутылке, кроме карты, обнаружился мышонок Джерри. Бедный маленький Джерри был стражем карты, а теперь у него на хвосте жадный кот. Придется ли Джерри отдать сокровище? Попадет ли Том первым на остров? Гонка началась, а Тому и Джерри нужно быть вместе, чтобы пробраться через обезьян, атакующих кокосами, обойти гигантского осьминога, а также перехитрить пиратов, и найти, наконец спрятанные сокровища!



Бюджет: $10 000 000





Качество: BDRip 720p [TOM_JERRY_SR_ME_WSKRS_BLUEBIRD]
Формат: MKV
Видео: H.264, 1280x720 (16:9), 23,976 кадр/сек, 3745 Кбит/сек, 0.169 bit/pixel
Аудио#1: 48 kHz, AC3 Dolby Digital, 2/0 (L,R) ch, ~192 kbps avg | RUS
Аудио#2: 48 kHz, AC3 Dolby Digital, 3/2 (L,C,R,l,r) + LFE ch, ~448.00 kbps avg | ENG


Автор рипа:


Общее
Уникальный идентификатор : 186710582316205746966134935844078594921 (0x8C77266FAF539106828687559C5DAB69)
Полное имя : T.&.J.Trepeszhi.Usatyj.2006.D.720p.potroks.mkv
Формат : Matroska
Версия формата : Version 2
Размер файла : 2,19 Гбайт
Продолжительность : 1 ч. 11 м.
Общий поток : 4386 Кбит/сек
Название фильма : -=POTROKS=-
Дата кодирования : UTC 2013-05-03 01:53:05
Программа кодирования : mkvmerge v5.9.0 ('On The Loose') built on Dec 15 2012 16:39:58
Библиотека кодирования : libebml v1.3.0 + libmatroska v1.4.0

Видео
Идентификатор : 1
Формат : AVC
Формат/Информация : Advanced Video Codec
Профиль формата : High@L4.1
Параметр CABAC формата : Да
Параметр ReFrames формата : 7 кадров
Идентификатор кодека : V_MPEG4/ISO/AVC
Продолжительность : 1 ч. 11 м.
Битрейт : 3745 Кбит/сек
Ширина : 1280 пикселей
Высота : 720 пикселей
Соотношение сторон : 16:9
Режим частоты кадров : Постоянный
Частота кадров : 23,976 кадра/сек
Цветовое пространство : YUV
Субдискретизация насыщенности : 4:2:0
Битовая глубина : 8 бит
Тип развёртки : Прогрессивная
Бит/(Пиксели*Кадры) : 0.169
Размер потока : 1,83 Гбайт (83%)
Заголовок : Tom and Jerry in Shiver Me Whiskers
Библиотека кодирования : x264 core 125 r2208 d9d2288
Настройки программы : cabac=1 / ref=7 / deblock=1:0:0 / analyse=0x3:0x133 / me=umh / subme=11 / psy=1 / psy_rd=1.20:0.05 / mixed_ref=1 / me_range=24 / chroma_me=1 / trellis=2 / 8x8dct=1 / cqm=0 / deadzone=21,11 / fast_pskip=0 / chroma_qp_offset=-3 / threads=9 / lookahead_threads=1 / sliced_threads=0 / nr=0 / decimate=1 / interlaced=0 / bluray_compat=0 / constrained_intra=0 / bframes=8 / b_pyramid=2 / b_adapt=2 / b_bias=0 / direct=3 / weightb=1 / open_gop=0 / weightp=2 / keyint=240 / keyint_min=23 / scenecut=40 / intra_refresh=0 / rc_lookahead=100 / rc=2pass / mbtree=1 / bitrate=3745 / ratetol=1.0 / qcomp=0.70 / qpmin=0 / qpmax=69 / qpstep=4 / cplxblur=20.0 / qblur=0.5 / vbv_maxrate=50000 / vbv_bufsize=65000 / nal_hrd=none / ip_ratio=1.35 / aq=1:0.80
Язык : English
Default : Да
Forced : Нет

Аудио #1
Идентификатор : 2
Формат : AC-3
Формат/Информация : Audio Coding 3
Профиль формата : Dolby Digital
Расширение режима : CM (complete main)
Параметр Endianness формата : Big
Идентификатор кодека : A_AC3
Продолжительность : 1 ч. 11 м.
Вид битрейта : Постоянный
Битрейт : 192 Кбит/сек
Каналы : 2 канала
Расположение каналов : Front: L R
Частота : 48,0 КГц
Битовая глубина : 16 бит
Метод сжатия : С потерями
Размер потока : 98,2 Мбайт (4%)
Заголовок : Dub | DD 2.0 @ 192 kbps
Язык : Russian
Default : Да
Forced : Да

Аудио #2
Идентификатор : 3
Формат : AC-3
Формат/Информация : Audio Coding 3
Расширение режима : CM (complete main)
Параметр Endianness формата : Big
Идентификатор кодека : A_AC3
Продолжительность : 1 ч. 11 м.
Вид битрейта : Постоянный
Битрейт : 448 Кбит/сек
Каналы : 6 каналов
Расположение каналов : Front: L C R, Side: L R, LFE
Частота : 48,0 КГц
Битовая глубина : 16 бит
Метод сжатия : С потерями
Размер потока : 229 Мбайт (10%)
Заголовок : Original | DD 5.1 @ 448 kbps
Язык : English
Default : Нет
Forced : Нет

Текст #1
Идентификатор : 4
Формат : UTF-8
Идентификатор кодека : S_TEXT/UTF8
Идентификатор кодека/Информация : UTF-8 Plain Text
Язык : Russian
Default : Нет
Forced : Нет

Текст #2
Идентификатор : 5
Формат : UTF-8
Идентификатор кодека : S_TEXT/UTF8
Идентификатор кодека/Информация : UTF-8 Plain Text
Язык : English
Default : Нет
Forced : Нет

Меню
00:00:00.000 : en:00:00:00.000
00:10:00.391 : en:00:10:00.391
00:20:08.123 : en:00:20:08.123
00:29:55.001 : en:00:29:55.001
00:40:27.842 : en:00:40:27.842
00:51:00.348 : en:00:51:00.348
00:59:27.355 : en:00:59:27.355
01:08:18.052 : en:01:08:18.052

avs [info]: 1280x720p 1:1 @ 2500000/104271 fps (cfr)
x264 [info]: using SAR=1/1
x264 [info]: using cpu capabilities: MMX2 SSE2Fast SSSE3 FastShuffle SSE4.2 AVX XOP FMA4 SSEMisalign LZCNT
x264 [info]: profile High, level 4.1
x264 [info]: frame I:999 Avg QP:14.02 size:273376
x264 [info]: frame P:27904 Avg QP:16.23 size: 39938
x264 [info]: frame B:73991 Avg QP:20.78 size: 8389
x264 [info]: consecutive B-frames: 4.2% 5.8% 13.5% 42.4% 14.2% 13.7% 2.2% 2.0% 2.0%
x264 [info]: mb I I16..4: 14.9% 44.3% 40.9%
x264 [info]: mb P I16..4: 2.3% 3.7% 2.5% P16..4: 26.2% 12.8% 9.0% 2.7% 0.9% skip:40.0%
x264 [info]: mb B I16..4: 0.5% 0.4% 0.4% B16..8: 18.3% 6.0% 2.0% direct: 2.2% skip:70.3% L0:43.2% L1:49.5% BI: 7.3%
x264 [info]: 8x8 transform intra:41.2% inter:36.7%
x264 [info]: direct mvs spatial:95.8% temporal:4.2%
x264 [info]: coded y,uvDC,uvAC intra: 65.6% 71.5% 53.0% inter: 10.2% 10.3% 4.3%
x264 [info]: i16 v,h,dc,p: 79% 7% 8% 6%
x264 [info]: i8 v,h,dc,ddl,ddr,vr,hd,vl,hu: 8% 13% 17% 10% 10% 8% 11% 11% 13%
x264 [info]: i4 v,h,dc,ddl,ddr,vr,hd,vl,hu: 9% 12% 16% 10% 11% 8% 10% 10% 13%
x264 [info]: i8c dc,h,v,p: 42% 33% 16% 9%
x264 [info]: Weighted P-Frames: Y:1.3% UV:1.0%
x264 [info]: ref P L0: 55.4% 4.1% 17.0% 7.8% 5.5% 4.9% 4.4% 1.0% 0.0%
x264 [info]: ref B L0: 69.8% 13.5% 8.4% 4.2% 2.6% 1.3%
x264 [info]: ref B L1: 89.9% 10.1%
x264 [info]: kb/s:3743.62

x264 [total]: encoded 102894 frames, 5.75 fps, 3743.62 kb/s






   Похожие торренты   Торрент   Размер 
В этой теме нет новых непрочитанных сообщений. Том и Джерри: Трепещи, Усатый! / Tom and Jerry in Shiver Me Whiskers (2006) BDRip-AVC от MediaClub

90 | 8

1.46 ГБ

В этой теме нет новых непрочитанных сообщений. Том и Джерри: Трепещи, Усатый! / Tom and Jerry in Shiver Me Whiskers (2006) BDRip 1080p от FREEISLAND

18 | 3

4.37 ГБ

В этой теме нет новых непрочитанных сообщений. Том и Джерри: Трепещи, Усатый! / Tom and Jerry in Shiver Me Whiskers (2006) DVDRip от slevin111

40 | 5

698 МБ

В этой теме нет новых непрочитанных сообщений. Том и Джерри: Шерлок Холмс / Tom & Jerry Meet Sherlock Holmes (2010) BDRip 720p от potroks | D

29 | 5

1.41 ГБ

В этой теме нет новых непрочитанных сообщений. Том и Джерри: Робин Гуд и Мышь-Весельчак / Tom and Jerry: Robin Hood and His Merry Mouse (2012) BDRip 720p от potroks | D

28 | 4

1.46 ГБ

В этой теме нет новых непрочитанных сообщений. Tom and Jerry: war of the Whiskers (2002) PS2

80 | 2

557.3 МБ

В этой теме нет новых непрочитанных сообщений. Том и Джерри Сказки / Tom and Jerry Tales [01-06 из 06] (2006-2009) DVDRip AVC

24 | 9

8.59 ГБ




Вы не можете начинать темы
Вы не можете отвечать на сообщения
Вы не можете редактировать свои сообщения
Вы не можете удалять свои сообщения
Вы не можете добавлять вложения

Перейти:  
Для Мосгорсуда, Роскомнадзора и рекламодателей: mosgorsud-torrent[собачка]yandex.ru
 Вход
ppkBB3cker v.2 © 2008-2014 @ PPK
[ Time : 0.063s | 15 Queries | GZIP : Off ]

Торрент трекер RUTOR.IN, Не можете зайти на rutor.org? Какой новый адрес рутор? Какое зеркало рутор? Не работает rutor.org и зеркала? Тогда наш торрент специально для вас. Rutor.in неофициальное зеркало rutor. В случае если у Вас заблокирован rutor или вдруг Вы не можете на него зайти, то Вы без труда сможете скачать бесплатно и без рекламы последние новинки кино, игр, сериалов и прочего у нас, на Rutor.in. Не нужно использовать прокси, чтобы зайти на рутор, достаточно воспользоваться нашим ресурсом. Все новые фильмы, игры, сериалы, книги и музыка за 2013 и 2014 годы через торрент бесплатно. Скачивайте фильмы в хорошем качестве, игры для пк, xbox, playstation без регистрации. У нас вы найдете новые Зарубежные сериалы и Русские сериалы 2013, 2014, 2015 годов. Оставайтесь с нами, качайте любимые фильмы, игры, сериалы, книги и музыку.
cron