img image001 image001 image001 image001 image001 image001 image001 image001 image001 image001 image001 image001 image001 image001 image001

Planets Sun Sun Sun
Статистика раздачи
Автор: Снежана | Размер: 351.27 МБ | Добавлен: 27 июл 2013
Раздают: 64    Качают: 6
Скачать торрент
Скачать торрент
Описание торрента

СообщениеДобавлено: 27 июл 2013 

#77

Год выпуска: 1970
Страна: СССР
Жанр: Мультфильм, короткометражка
Продолжительность: 00:19:14
Перевод: Не требуется

Режиссер: Борис Степанцев
Сценарий: Борис Ларин, Астрид Линдгрен
Композитор: Геннадий Гладков
Студия: Союзмультфильм

В ролях: Клара Румянова - Малыш, озвучка, Василий Ливанов - Карлсон, озвучка

Описание:
В продолжении мультфильма «Малыш и Карлсон» Карлсон возвращается. В доме Малыша появляется «домомучительница» фрекен Бок.

Качество: BDRip-AVC
Контейнер: MKV
Видео кодек: H.264
Аудио кодек: AC3
Видео: H.264, 772x576 pix., 1655 Kbps, 25.000 fps, High10@L4.0
Аудио#1: AC3, 6 channels, 448 Kbps, 48.0 KHz, 16 bits
Аудио#2: AC3, 2 channels, 448 Kbps, 48.0 KHz, 16 bits


Внимание!
Рип в High10@L4.0, в настоящее время не поддерживается большинством аппаратных проигрывателей.
Для корректного воспроизведения может потребоваться обновление ПО.
Владельцам несовместимого железа просьба не беспокоить, на трекере есть альтернативные релизы.
Для ознакомления скачивайте сэмпл.





General
Unique ID : 184989285651409093473723988256081491159 (0x8B2BA3F55CCF964D9EA13BC1422EB4D7)
Complete name : D:BDRip-AVCKarlsonKarlson.part.2.1970.mkv
Format : Matroska
Format version : Version 2
File size : 351 MiB
Duration : 19mn 13s
Overall bit rate : 2 554 Kbps
Encoded date : UTC 2013-05-04 07:19:38
Writing application : mkvmerge v6.0.0 ('Coming Up For Air') built on Jan 20 2013 09:52:00
Writing library : libebml v1.3.0 + libmatroska v1.4.0

Video
ID : 1
Format : AVC
Format/Info : Advanced Video Codec
Format profile : High 10@L4.0
Format settings, CABAC : Yes
Format settings, ReFrames : 16 frames
Codec ID : V_MPEG4/ISO/AVC
Duration : 19mn 13s
Bit rate : 1 655 Kbps
Width : 772 pixels
Height : 576 pixels
Display aspect ratio : 4:3
Frame rate mode : Constant
Frame rate : 25.000 fps
Color space : YUV
Chroma subsampling : 4:2:0
Bit depth : 10 bits
Scan type : Progressive
Bits/(Pixel*Frame) : 0.149
Stream size : 221 MiB (63%)
Title : FREEISLAND.HD
Writing library : x264 core 129 r2230+696+35 805d074 tMod [10-bit@all X86_64]
Encoding settings : cabac=1 / ref=16 / deblock=1:-1:-1 / analyse=0x3:0x133 / me=tesa / subme=11 / psy=1 / fade_compensate=0.00 / psy_rd=0.40:0.00 / mixed_ref=1 / me_range=64 / chroma_me=1 / trellis=2 / 8x8dct=1 / cqm=0 / deadzone=21,11 / fast_pskip=1 / chroma_qp_offset=-2 / threads=4 / lookahead_threads=1 / sliced_threads=0 / nr=0 / decimate=1 / interlaced=0 / bluray_compat=0 / constrained_intra=0 / fgo=0 / bframes=9 / b_pyramid=2 / b_adapt=2 / b_bias=0 / direct=2 / weightb=1 / open_gop=0 / weightp=1 / keyint=240 / keyint_min=25 / scenecut=40 / intra_refresh=0 / rc_lookahead=50 / rc=2pass / mbtree=1 / bitrate=1655 / ratetol=1.0 / qcomp=0.60 / qpmin=0 / qpmax=81 / qpstep=4 / cplxblur=20.0 / qblur=0.5 / ip_ratio=1.40 / aq=1:0.60
Language : Russian
Default : Yes
Forced : No

Audio #1
ID : 2
Format : AC-3
Format/Info : Audio Coding 3
Mode extension : CM (complete main)
Format settings, Endianness : Big
Codec ID : A_AC3
Duration : 19mn 13s
Bit rate mode : Constant
Bit rate : 448 Kbps
Channel(s) : 6 channels
Channel positions : Front: L C R, Side: L R, LFE
Sampling rate : 48.0 KHz
Bit depth : 16 bits
Compression mode : Lossy
Stream size : 61.6 MiB (18%)
Title : 5.1
Language : Russian
Default : Yes
Forced : No

Audio #2
ID : 3
Format : AC-3
Format/Info : Audio Coding 3
Format profile : Dolby Digital
Mode extension : CM (complete main)
Format settings, Endianness : Big
Codec ID : A_AC3
Duration : 19mn 13s
Bit rate mode : Constant
Bit rate : 448 Kbps
Channel(s) : 2 channels
Channel positions : Front: L R
Sampling rate : 48.0 KHz
Bit depth : 16 bits
Compression mode : Lossy
Stream size : 61.6 MiB (18%)
Title : 2.0
Language : Russian
Default : No
Forced : No




Релиз от:



   Похожие торренты   Торрент   Размер 
В этой теме нет новых непрочитанных сообщений. Малыш и Карлсон, Карлсон вернулся, Петя и Красная Шапочка, Опять двойка (1970) BDRip 720p от FREEISLAND

34 | 6

4.1 ГБ

В этой теме нет новых непрочитанных сообщений. Малыш и Карлсон, Карлсон вернулся (1968-1970) BDRip 720p

957 | 82

1.44 ГБ

В этой теме нет новых непрочитанных сообщений. Малыш и Карлсон, Карлсон вернулся, Петя и Красная Шапочка, Опять двойка (1970) BDRip от HQCLUB

626 | 81

1.46 ГБ

В этой теме нет новых непрочитанных сообщений. Малыш и Карлсон [Дилогия] (1968-1970) BDRip от MediaClub | КПК

194 | 32

171.17 МБ

В этой теме нет новых непрочитанных сообщений. Малыш и Карлсон (1968) BDRip-AVC [Hi10P] от FREEISLAND

73 | 4

340.02 МБ

В этой теме нет новых непрочитанных сообщений. Малыш и Карлсон. Сборник мультфильмов (1957-1970) BDRip 1080 от HDReactor

257 | 25

3.6 ГБ

В этой теме нет новых непрочитанных сообщений. Малыш и Карлсон. Сборник мультфильмов (1957-1970) BDRip-AVC от leonardo 59 | iPad

172 | 14

1.96 ГБ




Вы не можете начинать темы
Вы не можете отвечать на сообщения
Вы не можете редактировать свои сообщения
Вы не можете удалять свои сообщения
Вы не можете добавлять вложения

Перейти:  
Для Мосгорсуда, Роскомнадзора и рекламодателей: mosgorsud-torrent[собачка]yandex.ru
 Вход
ppkBB3cker v.2 © 2008-2014 @ PPK
[ Time : 0.019s | 14 Queries | GZIP : On ]

Торрент трекер RUTOR.IN, Не можете зайти на rutor.org? Какой новый адрес рутор? Какое зеркало рутор? Не работает rutor.org и зеркала? Тогда наш торрент специально для вас. Rutor.in неофициальное зеркало rutor. В случае если у Вас заблокирован rutor или вдруг Вы не можете на него зайти, то Вы без труда сможете скачать бесплатно и без рекламы последние новинки кино, игр, сериалов и прочего у нас, на Rutor.in. Не нужно использовать прокси, чтобы зайти на рутор, достаточно воспользоваться нашим ресурсом. Все новые фильмы, игры, сериалы, книги и музыка за 2013 и 2014 годы через торрент бесплатно. Скачивайте фильмы в хорошем качестве, игры для пк, xbox, playstation без регистрации. У нас вы найдете новые Зарубежные сериалы и Русские сериалы 2013, 2014, 2015 годов. Оставайтесь с нами, качайте любимые фильмы, игры, сериалы, книги и музыку.