img image001 image001 image001 image001 image001 image001 image001 image001 image001 image001 image001 image001 image001 image001 image001

Planets Sun Sun Sun
Статистика раздачи
Автор: Снежана | Размер: 262.09 МБ | Добавлен: 27 июл 2013
Раздают: 9    Качают: 3
Скачать торрент
Скачать торрент
Описание торрента

СообщениеДобавлено: 27 июл 2013 

#77

Информация о фильме

Название : Монстры против овощей. Ночь живых морковок
Оригинальное название : Monsters vs Aliens. Night of the Living Carrots
Год выхода : 2011
Жанр : мультфильм, короткометражка, комедия
Режиссер : Роберт Портер
Роли озвучивали : Сет Роген, Кифер Сазерленд, Джеймс Хоран, Дэвид Кэй, Джули Уайт, Джефри Тэмбор, Брэт Марнелл, Стивен Кеарин



Описание : После того, как чужеродная тыква-мутант взрывается в морковном саду Мерфи, зомби начинают атаковать морковь в непосредственной близости, и это приводит к сумасшедшим событиям.
Страна : США
Производство : DreamWorks Animation
Продолжительность : 00:11:30
Перевод : Любительский (Одноголосый, закадровый)

Релиз : pasha37
Файл
Формат видео : AVI
Качество : HDRip

Видео : 720x400 , (1.80:1), 23.976 fps, XviD MPEG-4 ~2273 kbps avg, 0.33 bit/pixel
Звук 1: 48 kHz, AC3 Dolby Digital, 3/2 (L,C,R,l,r) + LFE ch, ~448 kbps (Rus)
Звук 2: 48 kHz, AC3 Dolby Digital, 3/2 (L,C,R,l,r) + LFE ch, ~448 kbps (Eng)
Субтитры : английские




General
Complete name : E:/Monsters vs Aliens.Night of the Living Carrots.2011.BDRip/Monsters vs Aliens.Night of the Living Carrots.2011.BDRip.avi
Format : AVI
Format/Info : Audio Video Interleave
File size : 262 MiB
Duration : 11mn 30s
Overall bit rate : 3 183 Kbps
Writing application : VirtualDubModRus 1.5.10.2 (build 2542/release)
Writing library : VirtualDubMod build 2542/release

Video #0
ID : 0
Format : MPEG-4 Visual
Format profile : Advanced Simple@L5
Format settings, BVOP : Yes
Format settings, QPel : No
Format settings, GMC : No warppoints
Format settings, Matrix : Custom
Codec ID : XVID
Codec ID/Hint : XviD
Duration : 11mn 30s
Bit rate : 2 273 Kbps
Width : 720 pixels
Height : 400 pixels
Display aspect ratio : 16:9
Frame rate : 23.976 fps
Color space : YUV
Chroma subsampling : 4:2:0
Bit depth : 8 bits
Scan type : Progressive
Compression mode : Lossy
Bits/(Pixel*Frame) : 0.329
Stream size : 187 MiB (71%)
Writing library : XviD 65

Audio #1
ID : 1
Format : AC-3
Format/Info : Audio Coding 3
Mode extension : CM (complete main)
Codec ID : 2000
Duration : 11mn 30s
Bit rate mode : Constant
Bit rate : 448 Kbps
Channel(s) : 6 channels
Channel positions : Front: L C R, Side: L R, LFE
Sampling rate : 48.0 KHz
Bit depth : 16 bits
Compression mode : Lossy
Stream size : 36.9 MiB (14%)
Alignment : Split accross interleaves
Interleave, duration : 42 ms (1.00 video frame)
Interleave, preload duration : 500 ms

Audio #2
ID : 2
Format : AC-3
Format/Info : Audio Coding 3
Mode extension : CM (complete main)
Codec ID : 2000
Duration : 11mn 30s
Bit rate mode : Constant
Bit rate : 448 Kbps
Channel(s) : 6 channels
Channel positions : Front: L C R, Side: L R, LFE
Sampling rate : 48.0 KHz
Bit depth : 16 bits
Compression mode : Lossy
Stream size : 36.9 MiB (14%)
Alignment : Split accross interleaves
Interleave, duration : 42 ms (1.00 video frame)
Interleave, preload duration : 500 ms






   Похожие торренты   Торрент   Размер 
В этой теме нет новых непрочитанных сообщений. Монстры против Пришельцев: Ночь Живых Морковок / Monsters vs. Aliens: Night of Living Carrots (2011) HDRip | L

2 | 0

223.06 МБ

В этой теме нет новых непрочитанных сообщений. Монстры против Пришельцев: Ночь Живых Морковок / Monsters vs. Aliens: Night of Living Carrots (2011) BDRip 720p | L

13 | 4

622.81 МБ

В этой теме нет новых непрочитанных сообщений. Монстры против овощей / Monsters vs Aliens: Mutant Pumpkins from Outer Space (2009) HDTVRip

20 | 5

347.97 МБ

В этой теме нет новых непрочитанных сообщений. Мимесис. Ночь живых мертвецов / Mimesis: Night of the Living Dead (2011) HDRip | L2

14 | 2

1.47 ГБ

В этой теме нет новых непрочитанных сообщений. Мимесис. Ночь живых мертвецов / Mimesis: Night of the Living Dead (2011) HDRip | L2

5 | 2

723.3 МБ

В этой теме нет новых непрочитанных сообщений. Монстры против пришельцев / Monsters vs Aliens (2009) HDRip

56 | 10

749.62 МБ

В этой теме нет новых непрочитанных сообщений. Монстры против Пришельцев - 3D / Monsters vs Aliens - 3D (2009) HDRip от ExKinoRay | 3D-video

21 | 4

1.35 ГБ




Вы не можете начинать темы
Вы не можете отвечать на сообщения
Вы не можете редактировать свои сообщения
Вы не можете удалять свои сообщения
Вы не можете добавлять вложения

Перейти:  
Для Мосгорсуда, Роскомнадзора и рекламодателей: mosgorsud-torrent[собачка]yandex.ru
 Вход
ppkBB3cker v.2 © 2008-2014 @ PPK
[ Time : 0.031s | 16 Queries | GZIP : Off ]

cron