img image001 image001 image001 image001 image001 image001 image001 image001 image001 image001 image001 image001 image001 image001 image001

Planets Sun Sun Sun
Статистика раздачи
Автор: Снежана | Размер: 6.86 ГБ | Добавлен: 27 июл 2013
Раздают: 372    Качают: 2
Скачать торрент
Скачать торрент
Описание торрента

СообщениеДобавлено: 27 июл 2013 

#77


Монстры против пришельцев / Monsters vs Aliens
«Напали пришельцы? Зови монстров!»


#77

Страна: США
Студия: DreamWorks Animation
Жанр: мультфильм, фантастика, боевик, комедия
Год выпуска: 2009
Продолжительность: 01:34:21

Перевод: русский дубляж + украинский дубляж [лицензия, BD CEE]
Оригинальная аудиодорожка: английская
Русские субтитры: есть
Режиссер: Роб Леттерман, Конрад Вернон / Rob Letterman, Conrad Vernon
Роли озвучивали: Риз Уизерспун, Сет Роген, Хью Лори, Уилл Арнетт, Кифер Сазерленд, Рэйн Уилсон, Стефен Колбер, Пол Радд, Джули Уайт, Джефри Тэмбор
Роли дублировали: Глюкоза, Виктор Логинов, Александр Ревва, Дмитрий Дюжев, Сергей Гармаш


В Сюзан Мёрфи, девушку из Калифорнии, прямо в день ее свадьбы попадает метеорит, полный всякой дряни из космоса, в результате чего она вдруг начинает расти и вырастает до пятнадцати метров. Встревоженные появлением нового монстра, военные сразу берутся за дело: Сюзан отлавливают и увозят на секретную правительственную базу.
Там её переименовывают в Гигантику и запирают вместе с другими монстрами: гениальным, но насекомоголовым доктором наук Тараканом; брутальным рыбочеловеком по кличке Недостающее Звено; желеподобным и неубиваемым Б. О. Бом и стометровым Насекомозавром. Правда, их тюремное заключение длится недолго: на Землю нападает инопланетный робот, и отчаявшийся Президент, поддавшись уговорам генерала Воякера, отправляет разношерстную команду монстров на спасение планеты от неминуемой гибели.

Тип релиза: BDRip 1080p
Контейнер: MKV
Видео кодек: x264
Аудио кодек: AC3
Видео: AVC / High@L4.1 / 23,976 fps / 1920x816p / 8,5 Mbps / 0.226
Аудио 1: AC3 / 5.1 ch / 640 kbps / Русский дубляж [BD CEE]
Аудио 2: AC3 / 5.1 ch / 640 kbps / Украинский дубляж [BD CEE]
Аудио 3: AC3 / 5.1 ch / 640 kbps / Английский original [BD CEE]
Субтитры: (softsub, SRT)
Русские, Full BD CEE
Украинские, Full BD CEE
Английские, Full BD CEE
Дополнительно: Сохранены оригинальные чаптеры как на Blu-ray
Рип (видеоряд) от: Killbrain


Раздача от:













x264 [info]: frame I:1131 Avg QP:12.56 size:230029
x264 [info]: frame P:41775 Avg QP:15.89 size: 76744
x264 [info]: frame B:92840 Avg QP:17.47 size: 27337

Общее
Уникальный идентификатор : 254975194833318047218056510302390886485 (0xBFD26FB014F39974B48CEDF9E4B0A055)
Полное имя : F:Скачка торрентMonsters.vs.Aliens.2009.BDRip1080p(Killbrain).mkv
Формат : Matroska
Версия формата : Version 4 / Version 2
Размер файла : 6,86 Гбайт
Продолжительность : 1 ч. 34 м.
Общий поток : 10,4 Мбит/сек
Название фильма : Monsters vs Aliens (2009) by Killbrain
Дата кодирования : UTC 2013-05-07 19:35:43
Программа кодирования : mkvmerge v6.2.0 ('Promised Land') built on Apr 28 2013 12:22:01
Библиотека кодирования : libebml v1.3.0 + libmatroska v1.4.0

Видео
Идентификатор : 1
Формат : AVC
Формат/Информация : Advanced Video Codec
Профиль формата : High@L4.1
Параметр CABAC формата : Да
Параметр ReFrames формата : 4 кадра
Идентификатор кодека : V_MPEG4/ISO/AVC
Продолжительность : 1 ч. 34 м.
Битрейт : 8500 Кбит/сек
Ширина : 1920 пикселей
Высота : 816 пикселей
Соотношение сторон : 2,35:1
Режим частоты кадров : Постоянный
Частота кадров : 23,976 кадра/сек
Цветовое пространство : YUV
Субдискретизация насыщенности : 4:2:0
Битовая глубина : 8 бит
Тип развёртки : Прогрессивная
Бит/(Пиксели*Кадры) : 0.226
Размер потока : 5,46 Гбайт (80%)
Заголовок : Monsters vs Aliens (2009)
Библиотека кодирования : x264 core 132 r2310 76a5c3a
Настройки программы : cabac=1 / ref=4 / deblock=1:-2:-2 / analyse=0x3:0x113 / me=umh / subme=10 / psy=1 / psy_rd=1.00:0.40 / mixed_ref=1 / me_range=16 / chroma_me=1 / trellis=2 / 8x8dct=1 / cqm=0 / deadzone=21,11 / fast_pskip=0 / chroma_qp_offset=-4 / threads=3 / lookahead_threads=1 / sliced_threads=0 / nr=0 / decimate=0 / interlaced=0 / bluray_compat=0 / constrained_intra=0 / bframes=6 / b_pyramid=2 / b_adapt=2 / b_bias=0 / direct=3 / weightb=1 / open_gop=0 / weightp=2 / keyint=240 / keyint_min=24 / scenecut=40 / intra_refresh=0 / rc_lookahead=60 / rc=2pass / mbtree=0 / bitrate=8500 / ratetol=1.0 / qcomp=0.65 / qpmin=0 / qpmax=69 / qpstep=4 / cplxblur=20.0 / qblur=0.5 / vbv_maxrate=40000 / vbv_bufsize=30000 / nal_hrd=none / ip_ratio=1.40 / pb_ratio=1.30 / aq=1:0.80
Язык : English
Default : Да
Forced : Нет

Аудио #1
Идентификатор : 2
Формат : AC-3
Формат/Информация : Audio Coding 3
Расширение режима : CM (complete main)
Параметр Endianness формата : Big
Идентификатор кодека : A_AC3
Продолжительность : 1 ч. 34 м.
Вид битрейта : Постоянный
Битрейт : 640 Кбит/сек
Каналы : 6 каналов
Расположение каналов : Front: L C R, Side: L R, LFE
Частота : 48,0 КГц
Битовая глубина : 16 бит
Метод сжатия : С потерями
Размер потока : 432 Мбайт (6%)
Заголовок : AC3 / 5.1 ch / 640 kbps / Русский дубляж [BD CEE]
Язык : Russian
Default : Да
Forced : Нет

Аудио #2
Идентификатор : 3
Формат : AC-3
Формат/Информация : Audio Coding 3
Расширение режима : CM (complete main)
Параметр Endianness формата : Big
Идентификатор кодека : A_AC3
Продолжительность : 1 ч. 34 м.
Вид битрейта : Постоянный
Битрейт : 640 Кбит/сек
Каналы : 6 каналов
Расположение каналов : Front: L C R, Side: L R, LFE
Частота : 48,0 КГц
Битовая глубина : 16 бит
Метод сжатия : С потерями
Размер потока : 432 Мбайт (6%)
Заголовок : AC3 / 5.1 ch / 640 kbps / Украинский дубляж [BD CEE]
Язык : Ukrainian
Default : Нет
Forced : Нет

Аудио #3
Идентификатор : 4
Формат : AC-3
Формат/Информация : Audio Coding 3
Расширение режима : CM (complete main)
Параметр Endianness формата : Big
Идентификатор кодека : A_AC3
Продолжительность : 1 ч. 34 м.
Вид битрейта : Постоянный
Битрейт : 640 Кбит/сек
Каналы : 6 каналов
Расположение каналов : Front: L C R, Side: L R, LFE
Частота : 48,0 КГц
Битовая глубина : 16 бит
Метод сжатия : С потерями
Размер потока : 432 Мбайт (6%)
Заголовок : AC3 / 5.1 ch / 640 kbps / Английский original [BD CEE]
Язык : English
Default : Нет
Forced : Нет

Текст #1
Идентификатор : 5
Формат : UTF-8
Идентификатор кодека : S_TEXT/UTF8
Идентификатор кодека/Информация : UTF-8 Plain Text
Заголовок : Full [BD CEE]
Язык : Russian
Default : Нет
Forced : Нет

Текст #2
Идентификатор : 6
Формат : UTF-8
Идентификатор кодека : S_TEXT/UTF8
Идентификатор кодека/Информация : UTF-8 Plain Text
Заголовок : Full [BD CEE]
Язык : Ukrainian
Default : Нет
Forced : Нет

Текст #3
Идентификатор : 7
Формат : UTF-8
Идентификатор кодека : S_TEXT/UTF8
Идентификатор кодека/Информация : UTF-8 Plain Text
Заголовок : Full [BD CEE]
Язык : English
Default : Нет
Forced : Нет

Меню
00:00:00.000 : :Chapter 01
00:05:08.933 : :Chapter 02
00:07:39.500 : :Chapter 03
00:11:01.994 : :Chapter 04
00:17:36.096 : :Chapter 05
00:20:36.902 : :Chapter 06
00:24:10.407 : :Chapter 07
00:28:20.740 : :Chapter 08
00:32:41.960 : :Chapter 09
00:35:10.483 : :Chapter 10
00:38:59.420 : :Chapter 11
00:41:51.383 : :Chapter 12
00:46:47.095 : :Chapter 13
00:50:10.257 : :Chapter 14
00:55:48.053 : :Chapter 15
00:59:38.157 : :Chapter 16
01:03:24.133 : :Chapter 17
01:06:38.244 : :Chapter 18
01:08:38.280 : :Chapter 19
01:14:00.352 : :Chapter 20
01:16:55.569 : :Chapter 21
01:18:10.227 : :Chapter 22
01:21:38.393 : :Chapter 23
01:25:10.104 : :Chapter 24







   Похожие торренты   Торрент   Размер 
В этой теме нет новых непрочитанных сообщений. Монстры против пришельцев / Monsters vs Aliens (2009) BDRip 1080p от Youtracker | 3D-Video | Лицензия

6 | 6

7.19 ГБ

В этой теме нет новых непрочитанных сообщений. Монстры против пришельцев / Monsters vs Aliens (2009) BDRip 1080p

51 | 7

4.37 ГБ

В этой теме нет новых непрочитанных сообщений. Монстры против пришельцев / Monsters vs Aliens (2009) BDRip 1080p | 3D-Video

93 | 3

5.02 ГБ

В этой теме нет новых непрочитанных сообщений. Монстры против пришельцев / Monsters vs. Aliens (2009) BDRip 720p от Leonardo and Scarabey | Лицензия

383 | 21

3 ГБ

В этой теме нет новых непрочитанных сообщений. Монстры против пришельцев / Monsters vs Aliens (2009) Blu-Ray Rip 1080p

13 | 4

5.37 ГБ

В этой теме нет новых непрочитанных сообщений. Монстры против пришельцев / Monsters vs Aliens (2009) BDRip-AVC | D

5 | 1

2.1 ГБ

В этой теме нет новых непрочитанных сообщений. Монстры против пришельцев / Monsters vs Aliens (2009) BDRip от HQCLUB

6 | 7

2.04 ГБ




Вы не можете начинать темы
Вы не можете отвечать на сообщения
Вы не можете редактировать свои сообщения
Вы не можете удалять свои сообщения
Вы не можете добавлять вложения

Перейти:  
Для Мосгорсуда, Роскомнадзора и рекламодателей: mosgorsud-torrent[собачка]yandex.ru
 Вход
ppkBB3cker v.2 © 2008-2014 @ PPK
[ Time : 0.053s | 16 Queries | GZIP : Off ]

Торрент трекер RUTOR.IN, Не можете зайти на rutor.org? Какой новый адрес рутор? Какое зеркало рутор? Не работает rutor.org и зеркала? Тогда наш торрент специально для вас. Rutor.in неофициальное зеркало rutor. В случае если у Вас заблокирован rutor или вдруг Вы не можете на него зайти, то Вы без труда сможете скачать бесплатно и без рекламы последние новинки кино, игр, сериалов и прочего у нас, на Rutor.in. Не нужно использовать прокси, чтобы зайти на рутор, достаточно воспользоваться нашим ресурсом. Все новые фильмы, игры, сериалы, книги и музыка за 2013 и 2014 годы через торрент бесплатно. Скачивайте фильмы в хорошем качестве, игры для пк, xbox, playstation без регистрации. У нас вы найдете новые Зарубежные сериалы и Русские сериалы 2013, 2014, 2015 годов. Оставайтесь с нами, качайте любимые фильмы, игры, сериалы, книги и музыку.