img image001 image001 image001 image001 image001 image001 image001 image001 image001 image001 image001 image001 image001 image001 image001

Planets Sun Sun Sun
Статистика раздачи
Автор: Снежана | Размер: 2.95 ГБ | Добавлен: 27 июл 2013
Раздают: 3    Качают: 5
Скачать торрент
Скачать торрент
Описание торрента

СообщениеДобавлено: 27 июл 2013 

Полный второй сезон

#77


Год выпуска: 2011
Страна: Италия
Киностудия: Mondo TV
Жанр: мультфильм, приключения
Продолжительность: ~ 00:15:00 / серия
Перевод: Профессиональный (многоголосый, закадровый)
Субтитры: нет


Режиссер: Маурисио Форестьери / Maurizio Forestieri


Описание: Флинн и Алисия, капитаны пиратских кораблей Авроры и Эльдорадо - отправляются на поиски флага "Три Клинка". Ведь старая легенда гласит: "Тот, кто найдет флаг "Три Клинка" - тот станет непобедимым". Но на их пути появляется самый опасный пират в мире - Ураган Джо, который похитил старинный пергамент, указывающий путь к заветному флагу и сокровищам капитана Примо. Но на помощь Алисии и Флинну приходит принцесса Красная Лилия, которая запомнила карту и теперь они все вместе отправляются в захватывающее путешествие на поиски магического флага и сокровищ капитана Примо.



Исходник: 2xDVD5 R5
Качество: DVDRip
Формат: AVI
Видео: 720x544 (4:3), 25 fps, XviD MPEG-4 ~ 2000 kbps avg, 0.204 bit/pixel
Аудио: Русский AC3 2.0, 192Kbps, 48 khz
Раздача от:
"В поисках флага "Три клинка"
01. В поисках флага "Три клинка"
02. Водоворот смерти
03. Проклятие жизни наоборот
04. Заколдованный лабиринт
05. Пролив Дерущихся Монстров
06. Перевернутый остров
07. Остров туманов

"Сокровища капитана Примо"
08. Остров вечной молодости
09. Галеон капитана Примо
10. Ключ к сокровищам
11. Погоня за Ураганом Джо
12. Остров Молоха
13. Все по домам

Общее
Полное имя : Monstry.i.piraty.s01.2011.P.DVDRip_[Youtracker]_by_avproh�1.avi
Формат : AVI
Формат/Информация : Audio Video Interleave
Размер файла : 240 Мбайт
Продолжительность : 15 м.
Общий поток : 2200 Кбит/сек
Программа кодирования : VirtualDubModRus 1.5.10.2 (build 2542/release)
Библиотека кодирования : VirtualDubMod build 2542/release

Видео
Идентификатор : 0
Формат : MPEG-4 Visual
Профиль формата : Advanced Simple@L5
Параметр BVOP формата : 1
Параметр QPel формата : Нет
Параметр GMC формата : Без точки перехода
Параметр матрицы формата : Выборочная
Идентификатор кодека : XVID
Идентификатор кодека/Подсказка : XviD
Продолжительность : 15 м.
Битрейт : 1999 Кбит/сек
Ширина : 720 пикселей
Высота : 544 пикселя
Соотношение сторон : 4:3
Частота кадров : 25,000 кадров/сек
Цветовое пространство : YUV
Субдискретизация насыщенности : 4:2:0
Битовая глубина : 8 бит
Тип развёртки : Прогрессивная
Метод сжатия : С потерями
Бит/(Пиксели*Кадры) : 0.204
Размер потока : 218 Мбайт (91%)
Библиотека кодирования : XviD 65

Аудио
Идентификатор : 1
Формат : AC-3
Формат/Информация : Audio Coding 3
Расширение режима : CM (complete main)
Параметр Endianness формата : Big
Идентификатор кодека : 2000
Продолжительность : 15 м.
Вид битрейта : Постоянный
Битрейт : 192 Кбит/сек
Каналы : 2 канала
Расположение каналов : Front: L R
Частота : 48,0 КГц
Битовая глубина : 16 бит
Метод сжатия : С потерями
Размер потока : 20,9 Мбайт (9%)
Выравнивание : Разделение по промежуткам
Продолжительность промежутка : 40 мс. (1,00 видеокадр)
Время предзагрузки промежутка : 500 мс.





   Похожие торренты   Торрент   Размер 
В этой теме нет новых непрочитанных сообщений. Монстры и пираты / Monsters & Pirates [02x01-13 из 13] (2011) DVDRip-AVC от Youtracker | P

4 | 5

2.96 ГБ

В этой теме нет новых непрочитанных сообщений. Монстры и пираты / Monsters & Pirates [02x01-13 из 13] (2011) 2xDVD5 от Youtracker | P | Лицензия

0 | 2

8.71 ГБ

В этой теме нет новых непрочитанных сообщений. Монстры и пираты / Monsters & Pirates [S01] (2009) DVDRip | P

8 | 5

2.42 ГБ

В этой теме нет новых непрочитанных сообщений. Монстры и пираты / Monsters & Pirates [S01-02] (2009-2011) WEB-DLRip от Files-х

67 | 6

4.94 ГБ

В этой теме нет новых непрочитанных сообщений. Джейк и пираты Нетландии / Jake and the Never Land Pirates [01-18 из ??] (2011-2013) DVDRip-AVC от Youtracker | D | лицензия

31 | 33

7.14 ГБ

В этой теме нет новых непрочитанных сообщений. Джейк и пираты Нетландии / Jake and the Never Land Pirates [01-18 из ??] (2011-2013) DVDRip от Youtracker | D | лицензия

5 | 4

7.14 ГБ

В этой теме нет новых непрочитанных сообщений. Джейк и пираты Нетландии / Jake and the Never Land Pirates [01-18 из ??] (2011-2013) 3xDVD9 R5 от Youtracker | D | лицензия

3 | 2

18.43 ГБ




Вы не можете начинать темы
Вы не можете отвечать на сообщения
Вы не можете редактировать свои сообщения
Вы не можете удалять свои сообщения
Вы не можете добавлять вложения

Перейти:  
Для Мосгорсуда, Роскомнадзора и рекламодателей: mosgorsud-torrent[собачка]yandex.ru
 Вход
ppkBB3cker v.2 © 2008-2014 @ PPK
[ Time : 2.185s | 16 Queries | GZIP : On ]

Торрент трекер RUTOR.IN, Не можете зайти на rutor.org? Какой новый адрес рутор? Какое зеркало рутор? Не работает rutor.org и зеркала? Тогда наш торрент специально для вас. Rutor.in неофициальное зеркало rutor. В случае если у Вас заблокирован rutor или вдруг Вы не можете на него зайти, то Вы без труда сможете скачать бесплатно и без рекламы последние новинки кино, игр, сериалов и прочего у нас, на Rutor.in. Не нужно использовать прокси, чтобы зайти на рутор, достаточно воспользоваться нашим ресурсом. Все новые фильмы, игры, сериалы, книги и музыка за 2013 и 2014 годы через торрент бесплатно. Скачивайте фильмы в хорошем качестве, игры для пк, xbox, playstation без регистрации. У нас вы найдете новые Зарубежные сериалы и Русские сериалы 2013, 2014, 2015 годов. Оставайтесь с нами, качайте любимые фильмы, игры, сериалы, книги и музыку.