img image001 image001 image001 image001 image001 image001 image001 image001 image001 image001 image001 image001 image001 image001 image001

Planets Sun Sun Sun
Статистика раздачи
Автор: Снежана | Размер: 2.96 ГБ | Добавлен: 27 июл 2013
Раздают: 4    Качают: 5
Скачать торрент
Скачать торрент
Описание торрента

СообщениеДобавлено: 27 июл 2013 

Полный второй сезон

#77


Год выпуска: 2011
Страна: Италия
Киностудия: Mondo TV
Жанр: мультфильм, приключения
Продолжительность: ~ 00:15:00 / серия
Перевод: Профессиональный (многоголосый, закадровый)
Субтитры: нет


Режиссер: Маурисио Форестьери / Maurizio Forestieri


Описание: Флинн и Алисия, капитаны пиратских кораблей Авроры и Эльдорадо - отправляются на поиски флага "Три Клинка". Ведь старая легенда гласит: "Тот, кто найдет флаг "Три Клинка" - тот станет непобедимым". Но на их пути появляется самый опасный пират в мире - Ураган Джо, который похитил старинный пергамент, указывающий путь к заветному флагу и сокровищам капитана Примо. Но на помощь Алисии и Флинну приходит принцесса Красная Лилия, которая запомнила карту и теперь они все вместе отправляются в захватывающее путешествие на поиски магического флага и сокровищ капитана Примо.



Исходник: 2xDVD5 R5
Качество: DVDRip-AVC
Формат: MKV
Видео: 720x576@762x576 (4:3), 25 fps, H264 ~ 2006 kbps avg, 0.193 bit/pixel
Аудио: Русский AC3 2.0, 192 Kbps, 48 khz
Раздача от:
"В поисках флага "Три клинка"
01. В поисках флага "Три клинка"
02. Водоворот смерти
03. Проклятие жизни наоборот
04. Заколдованный лабиринт
05. Пролив Дерущихся Монстров
06. Перевернутый остров
07. Остров туманов

"Сокровища капитана Примо"
08. Остров вечной молодости
09. Галеон капитана Примо
10. Ключ к сокровищам
11. Погоня за Ураганом Джо
12. Остров Молоха
13. Все по домам

Общее
Полное имя : Monstry.i.piraty.s02.2011.P.DVDRip-AVC_[Youtracker]_by_avproh�1.mkv
Формат : Matroska
Версия формата : Version 4 / Version 2
Размер файла : 240 Мбайт
Продолжительность : 15 м.
Общий поток : 2200 Кбит/сек
Дата кодирования : UTC 2013-05-11 03:43:30
Программа кодирования : mkvmerge v6.1.0 ('Old Devil') built on Mar 2 2013 14:32:37
Библиотека кодирования : libebml v1.3.0 + libmatroska v1.4.0

Видео
Идентификатор : 1
Формат : AVC
Формат/Информация : Advanced Video Codec
Профиль формата : High@L4.1
Параметр CABAC формата : Да
Параметр ReFrames формата : 11 кадров
Идентификатор кодека : V_MPEG4/ISO/AVC
Продолжительность : 15 м.
Битрейт : 2006 Кбит/сек
Ширина : 720 пикселей
Высота : 576 пикселей
Соотношение сторон : 4:3
Соотношение сторон в оригинале : 4:3
Режим частоты кадров : Постоянный
Частота кадров : 25,000 кадров/сек
Стандарт вещания : PAL
Цветовое пространство : YUV
Субдискретизация насыщенности : 4:2:0
Битовая глубина : 8 бит
Тип развёртки : Прогрессивная
Бит/(Пиксели*Кадры) : 0.193
Размер потока : 214 Мбайт (89%)
Библиотека кодирования : x264 core 130 r2273 b3065e6
Настройки программы : cabac=1 / ref=11 / deblock=1:-2:-1 / analyse=0x3:0x113 / me=umh / subme=9 / psy=1 / psy_rd=1.00:0.20 / mixed_ref=1 / me_range=32 / chroma_me=1 / trellis=1 / 8x8dct=1 / cqm=0 / deadzone=21,11 / fast_pskip=0 / chroma_qp_offset=-3 / threads=9 / lookahead_threads=1 / sliced_threads=0 / nr=0 / decimate=0 / interlaced=0 / bluray_compat=0 / constrained_intra=0 / bframes=8 / b_pyramid=2 / b_adapt=2 / b_bias=0 / direct=3 / weightb=1 / open_gop=0 / weightp=2 / keyint=250 / keyint_min=25 / scenecut=40 / intra_refresh=0 / rc_lookahead=60 / rc=2pass / mbtree=1 / bitrate=2006 / ratetol=1.0 / qcomp=0.60 / qpmin=0 / qpmax=69 / qpstep=4 / cplxblur=20.0 / qblur=0.5 / ip_ratio=1.40 / aq=1:1.00
Язык : Italian
Default : Да
Forced : Нет

Аудио
Идентификатор : 2
Формат : AC-3
Формат/Информация : Audio Coding 3
Расширение режима : CM (complete main)
Параметр Endianness формата : Big
Идентификатор кодека : A_AC3
Продолжительность : 15 м.
Вид битрейта : Постоянный
Битрейт : 192 Кбит/сек
Каналы : 2 канала
Расположение каналов : Front: L R
Частота : 48,0 КГц
Битовая глубина : 16 бит
Метод сжатия : С потерями
Размер потока : 20,9 Мбайт (9%)
Язык : Russian
Default : Да
Forced : Нет





   Похожие торренты   Торрент   Размер 
В этой теме нет новых непрочитанных сообщений. Монстры и пираты / Monsters & Pirates [02x01-13 из 13] (2011) DVDRip от Youtracker | P

3 | 5

2.95 ГБ

В этой теме нет новых непрочитанных сообщений. Монстры и пираты / Monsters & Pirates [02x01-13 из 13] (2011) 2xDVD5 от Youtracker | P | Лицензия

0 | 2

8.71 ГБ

В этой теме нет новых непрочитанных сообщений. Монстры и пираты / Monsters & Pirates [S01] (2009) DVDRip | P

8 | 5

2.42 ГБ

В этой теме нет новых непрочитанных сообщений. Монстры и пираты / Monsters & Pirates [S01-02] (2009-2011) WEB-DLRip от Files-х

67 | 6

4.94 ГБ

В этой теме нет новых непрочитанных сообщений. Джейк и пираты Нетландии / Jake and the Never Land Pirates [01-18 из ??] (2011-2013) DVDRip от Youtracker | D | лицензия

5 | 4

7.14 ГБ

В этой теме нет новых непрочитанных сообщений. Джейк и пираты Нетландии / Jake and the Never Land Pirates [01-18 из ??] (2011-2013) DVDRip-AVC от Youtracker | D | лицензия

31 | 33

7.14 ГБ

В этой теме нет новых непрочитанных сообщений. Джейк и пираты Нетландии / Jake and the Never Land Pirates [01-18 из ??] (2011-2013) 3xDVD9 R5 от Youtracker | D | лицензия

3 | 2

18.43 ГБ




Вы не можете начинать темы
Вы не можете отвечать на сообщения
Вы не можете редактировать свои сообщения
Вы не можете удалять свои сообщения
Вы не можете добавлять вложения

Перейти:  
Для Мосгорсуда, Роскомнадзора и рекламодателей: mosgorsud-torrent[собачка]yandex.ru
 Вход
ppkBB3cker v.2 © 2008-2014 @ PPK
[ Time : 0.538s | 16 Queries | GZIP : Off ]

Торрент трекер RUTOR.IN, Не можете зайти на rutor.org? Какой новый адрес рутор? Какое зеркало рутор? Не работает rutor.org и зеркала? Тогда наш торрент специально для вас. Rutor.in неофициальное зеркало rutor. В случае если у Вас заблокирован rutor или вдруг Вы не можете на него зайти, то Вы без труда сможете скачать бесплатно и без рекламы последние новинки кино, игр, сериалов и прочего у нас, на Rutor.in. Не нужно использовать прокси, чтобы зайти на рутор, достаточно воспользоваться нашим ресурсом. Все новые фильмы, игры, сериалы, книги и музыка за 2013 и 2014 годы через торрент бесплатно. Скачивайте фильмы в хорошем качестве, игры для пк, xbox, playstation без регистрации. У нас вы найдете новые Зарубежные сериалы и Русские сериалы 2013, 2014, 2015 годов. Оставайтесь с нами, качайте любимые фильмы, игры, сериалы, книги и музыку.