img image001 image001 image001 image001 image001 image001 image001 image001 image001 image001 image001 image001 image001 image001 image001

Planets Sun Sun Sun
Статистика раздачи
Автор: Снежана | Размер: 8.71 ГБ | Добавлен: 27 июл 2013
Раздают: 1    Качают: 2
Скачать торрент
Скачать торрент
Описание торрента

СообщениеДобавлено: 27 июл 2013 

#77
Год выпуска: 2000-2003
Страна: Канада, Китай

Киностудия: AAC Kids, Hong Ying Animation Inc...
Жанр: мультфильм, комедия
Продолжительность: ~ 00:22:40 / серия

Перевод: Профессиональный (дублированный)
Субтитры: нет

Режиссер: Грег Салливан / Greg Sullivan

Роли озвучивали:
Ли Токар, Дрю Рейчелт, Бабс Чула, Йен Джеймс Корлетт, Глен Гулд, Кирби Морроу, Джейн Мортифи

Описание:
Иван (Ивон по-французски) — это храбрый, но наивный моряк и искатель приключений, попавший к нам из 17 века. По велению своего короля Луи XIV он отправился открывать и покорять новые земли во славу Франции, но почти на три столетия оказался замороженным во льдах Юкона! От ледового сна очнулся Иван среди не особо умных, зато веселых и добродушных жителей северной Канады. И живётся Ивану у них не плохо.






Исходник: 3xDVD9 R5
Качество: DVDRip
Формат: AVI
Видео: 704x544 (1.294:1), 25 fps, XviD MPEG-4 ~ 1922 kbps avg, 0.201 bit/pixel
Аудио: Русский AC3 2.0, 192 Kbps, 48 khz

Примечание: Раздача рассчитана под запись на 2 DVD5 - по тринадцать серий на диск.

Раздача от:

Сезон 1
01. Кроткий бросает вызов / Call of the Mild
02. На карте не значится / North of Nothing
03. Сертификат качества на запах / License to Smell
04. Любовь в стиле Бабс / When Love Goes Babs
05. Офицер и француз / An Officer & a Frenchman
06. И возлюбил он моржа / The Walrus Between Us
07. Пляжный денёчек / Beach Blanket Bozos
08. И болван сойдёт за короля / The Clod Who Would Be King
09. Сыр замедляного действия / Fromage to Eternity
10. Денёчек с мисс Валенти / Valentine’s Day
11. Иван Киллер / Mad Dog Ducharme
12. Везунья миллионера / Million Dollar Moron
13. Отвержение / An Affair to Dismember

Сезон 2
14. Оценка отлично за дружбу / An F in Friendship
15. Полный маразм / Dawn of the Dense
16. Как мерзавца поставить на место / Land of the Midnight Scum
17. Снежный фаитон /Chariots of Ice
18. Странная парочка / The Really Odd Couple
19. Игрик файлы / The Y Files
20. Иван в затерянном мире / Yvon Over the Rainbow
21. Как делили мамонта / The Trouble with Mammoths
22. Шайбу-шайбу / Pull Your Goalie
23. Иванов день / Joy to Yvon
24. Десять маленьких идиотов / Ten Little Idiots
25. Горе исследователей / The Unfit Outfitters
26. А суть в чём / The Teeth of the Matter

Общее
Полное имя : Otmorozhenniy.Ivan.iz.Yukona.2000.D.DVDRip_[Youtracker]_by_avproh�1.avi
Формат : AVI
Формат/Информация : Audio Video Interleave
Размер файла : 343 Мбайт
Продолжительность : 22 м.
Общий поток : 2117 Кбит/сек
Программа кодирования : VirtualDubModRus 1.5.10.2 (build 2542/release)
Библиотека кодирования : VirtualDubMod build 2542/release

Видео
Идентификатор : 0
Формат : MPEG-4 Visual
Профиль формата : Advanced Simple@L5
Параметр BVOP формата : 1
Параметр QPel формата : Нет
Параметр GMC формата : Без точки перехода
Параметр матрицы формата : Выборочная
Идентификатор кодека : XVID
Идентификатор кодека/Подсказка : XviD
Продолжительность : 22 м.
Битрейт : 1915 Кбит/сек
Ширина : 704 пикселя
Высота : 544 пикселя
Соотношение сторон : 1,294
Частота кадров : 25,000 кадров/сек
Цветовое пространство : YUV
Субдискретизация насыщенности : 4:2:0
Битовая глубина : 8 бит
Тип развёртки : Прогрессивная
Метод сжатия : С потерями
Бит/(Пиксели*Кадры) : 0.200
Размер потока : 311 Мбайт (90%)
Библиотека кодирования : XviD 65

Аудио
Идентификатор : 1
Формат : AC-3
Формат/Информация : Audio Coding 3
Расширение режима : CM (complete main)
Параметр Endianness формата : Big
Идентификатор кодека : 2000
Продолжительность : 22 м.
Вид битрейта : Постоянный
Битрейт : 192 Кбит/сек
Каналы : 2 канала
Расположение каналов : Front: L R
Частота : 48,0 КГц
Битовая глубина : 16 бит
Метод сжатия : С потерями
Размер потока : 31,1 Мбайт (9%)
Выравнивание : Разделение по промежуткам
Продолжительность промежутка : 40 мс. (1,00 видеокадр)
Время предзагрузки промежутка : 500 мс.





   Похожие торренты   Торрент   Размер 
В этой теме нет новых непрочитанных сообщений. Отмороженный: Иван из Юкона / Yvon of the Yukon [01-02x01-26 из 26] (2000-2003) DVDRip-AVC от Youtracker | D

0 | 2

8.73 ГБ

В этой теме нет новых непрочитанных сообщений. Отмороженный: Иван из Юкона / Yvon of the Yukon [01-02x01-26 из 26] (2000-2003) 3xDVD9 от Youtracker | D | Лицензия

0 | 2

22.99 ГБ

В этой теме нет новых непрочитанных сообщений. Солдат Иван Бровкин (1956) DVDRip-AVC от Youtracker

646 | 37

1.46 ГБ

В этой теме нет новых непрочитанных сообщений. Атомный Иван (2012) DVDRip от Youtracker | Лицензия

16 | 6

1.45 ГБ

В этой теме нет новых непрочитанных сообщений. Царь Иван Грозный (1991) DVDRip от Youtracker

90 | 10

1.45 ГБ

В этой теме нет новых непрочитанных сообщений. Солдат Иван Бровкин (1956) DVDRip от Youtracker

152 | 16

744.55 МБ

В этой теме нет новых непрочитанных сообщений. Иван Бровкин на целине (1958) DVDRip от Youtracker

15 | 12

1.45 ГБ




Вы не можете начинать темы
Вы не можете отвечать на сообщения
Вы не можете редактировать свои сообщения
Вы не можете удалять свои сообщения
Вы не можете добавлять вложения

Перейти:  
Для Мосгорсуда, Роскомнадзора и рекламодателей: mosgorsud-torrent[собачка]yandex.ru
 Вход
ppkBB3cker v.2 © 2008-2014 @ PPK
[ Time : 0.552s | 14 Queries | GZIP : On ]

Торрент трекер RUTOR.IN, Не можете зайти на rutor.org? Какой новый адрес рутор? Какое зеркало рутор? Не работает rutor.org и зеркала? Тогда наш торрент специально для вас. Rutor.in неофициальное зеркало rutor. В случае если у Вас заблокирован rutor или вдруг Вы не можете на него зайти, то Вы без труда сможете скачать бесплатно и без рекламы последние новинки кино, игр, сериалов и прочего у нас, на Rutor.in. Не нужно использовать прокси, чтобы зайти на рутор, достаточно воспользоваться нашим ресурсом. Все новые фильмы, игры, сериалы, книги и музыка за 2013 и 2014 годы через торрент бесплатно. Скачивайте фильмы в хорошем качестве, игры для пк, xbox, playstation без регистрации. У нас вы найдете новые Зарубежные сериалы и Русские сериалы 2013, 2014, 2015 годов. Оставайтесь с нами, качайте любимые фильмы, игры, сериалы, книги и музыку.