img image001 image001 image001 image001 image001 image001 image001 image001 image001 image001 image001 image001 image001 image001 image001

Planets Sun Sun Sun
Статистика раздачи
Автор: Снежана | Размер: 1.45 ГБ | Добавлен: 27 июл 2013
Раздают: 62    Качают: 19
Скачать торрент
Скачать торрент
Описание торрента

СообщениеДобавлено: 27 июл 2013 

#77

Год выпуска: 1999
Страна: США
Жанр: Мультсериал
Продолжительность: 01:05:06 + 01:05:03
Перевод: Профессиональный (многоголосый, закадровый)
Русские субтитры: нет

Режиссер: Уолтер Ланц / Walter Lantz

В ролях: Уолтер Ланц, Алекс Лови, Джеймс Калхейн, Дик Ланди, Дон Паттерсон, Пол Джей Смит, Джек Ханна, Арт Дэвис, Сид Маркус
Описание: Встречайте новое шоу с Вуди Вудпекером»! Маленький озорной дятел с Чилли и многими другими друзьями возвращается! Оказывается, Вуди, как и его многочисленные друзья, любит лыжи. Только вот он предпочитает сноуборд, а, к примеру, Уоли – обычные лыжные катания. У каждого есть свой любимый вид лыжного спорта, и каждый считает его лучшим. Доказать свою правоту, друзья решают участием в соревнованиях «Инерция-марафон 2000». Они заключают пари – победит тот вид спорта, который лучше других. Наши герои не догадываются, что вместе с ними кататься с горы будет барсук на санях… А однажды с Вуди произошла другая интересная история. Он начинает думать, что телевизионные бои фальсифицируются. Чемпион побеждает всех имеющихся претендентов, борясь за премию в пять тысяч долларов. Вуди начинает искать «ахиллесову пяту» победителя и… находит, выйдя на арену под личиной мамочки Зубодробителя. Сможет ли Чемпион побороть ее? А еще Вуди примет участие в соревнованиях по боулингу. Ему захочется выиграть много денег, только вот, чтобы добыть их, ему придется сразиться с самим «мастером» Баззом. С любознательным Вуди постоянно случаются невероятные истории. Он узнает, что «молчание – золото», что лечиться нужно с умом и много чего другого. Присоединяйся к его компании, и тебе ни минуты не будет скучно.

Доп. информация: О фильме: Одна из самых известных мультипликационных серий компании "Universal Pictures" - "Вуди Вудпеккер" появилась на свет в начале 1940-го года. Её создателями были Уолтер Ланц, известный режиссер-мультипликатор, и Алекс Лови. Главным действующим лицом мультсериала стал дятел ("woodpecker"). Но какая же это смешная и забавная птичка с большим клювом. Невольно усмехаешься - таким клювом можно и стены пробивать!

Качество: DVDRip
Формат: AVI
Видео кодек: XviD
Аудио кодек: MP3
Видео: 640x480 (1.33:1), 25 fps, XviD build 73 ~1456 kbps avg, 0.19 bit/pixel
Аудио: 48 kHz, MPEG Layer 3, 2 ch, ~128.00 kbps avg

Раздача от:


D:vudi_DVDRip. [YTN] by dexter lexvudi_1_DVDRip. [YTN] by dexter lex.avi
General
Complete name : D:vudi_DVDRip. [YTN] by dexter lexvudi_1_DVDRip. [YTN] by dexter lex.avi
Format : AVI
Format/Info : Audio Video Interleave
File size : 742 MiB
Duration : 1h 5mn
Overall bit rate : 1 594 Kbps
Writing application : VirtualDubMod 1.5.10.3 | www.virtualdub-fr.org || (build 2550/release)
Writing library : VirtualDubMod build 2550/release
Video #0
ID : 0
Format : MPEG-4 Visual
Format profile : Advanced Simple@L5
Format settings, BVOP : 1
Format settings, QPel : No
Format settings, GMC : No warppoints
Format settings, Matrix : Custom
Codec ID : XVID
Codec ID/Hint : XviD
Duration : 1h 5mn
Bit rate : 1 456 Kbps
Width : 640 pixels
Height : 480 pixels
Display aspect ratio : 1.33:1
Frame rate : 25.000 fps
Color space : YUV
Chroma subsampling : 4:2:0
Bit depth : 8 bits
Scan type : Progressive
Compression mode : Lossy
Bits/(Pixel*Frame) : 0.190
Stream size : 678 MiB (91%)
Writing library : XviD 73
Audio #1
ID : 1
Format : MPEG Audio
Format version : Version 1
Format profile : Layer 3
Codec ID : 55
Codec ID/Hint : MP3
Duration : 1h 5mn
Bit rate mode : Constant
Bit rate : 128 Kbps
Channel(s) : 2 channels
Sampling rate : 48.0 KHz
Compression mode : Lossy
Stream size : 59.6 MiB (8%)
Alignment : Aligned on interleaves
Interleave, duration : 40 ms (1.00 video frame)
Interleave, preload duration : 504 ms
Writing library : LAME3.99r
Encoding settings : -m s -V 4 -q 2 -lowpass 17 -b 128



Список серий:
• Вуди отправляется на отдых
• Вуди-кабельный ас
• Винни-медик
• Фальшивые каникулы

• Сосисочные войны
• Электрическое одеяло
• Вуди и термит

• Королевский визит Уолли
• Вилли мерзляк в Мексике
• Вуди - лунатик


• Соперник
• Как Путаник и Заноза с горы катались
• Диета - не всё
• Выше крыши
• Чилли и пушная форель
• Вуди-мнимый больной
• Кегли
• Шоу Чилли
• Молчание



   Похожие торренты   Торрент   Размер 
В этой теме нет новых непрочитанных сообщений. Вуди Вудпекер и друзья: Лучшее / Woody Woodpecker and His Friends (1940) DVDRip от Sheikn

204 | 28

2.28 ГБ

В этой теме нет новых непрочитанных сообщений. Вуди Вудпеккер / Woody Woodpecker (2002) PC

73 | 7

647.92 МБ

В этой теме нет новых непрочитанных сообщений. Вуди Аллен / Woody Allen (2012) HDTVRip | Р

0 | 0

1.45 ГБ

В этой теме нет новых непрочитанных сообщений. Вуди Аллен / Woody Allen (2012) HDTV 1080i | Р

6 | 0

5.09 ГБ

В этой теме нет новых непрочитанных сообщений. Paul McCartney - The Parkinson Show (1999) DVDRip от Лумина

4 | 0

1.68 ГБ

В этой теме нет новых непрочитанных сообщений. Шоу 70−х / That '70s Show [02x01-10] (1999) WEBRip | L

0 | 1

3.41 ГБ

В этой теме нет новых непрочитанных сообщений. Rocky Horror Interactive Show (1999) PC | RePack от Pilotus

0 | 2

260.59 МБ




Вы не можете начинать темы
Вы не можете отвечать на сообщения
Вы не можете редактировать свои сообщения
Вы не можете удалять свои сообщения
Вы не можете добавлять вложения

Перейти:  
Для Мосгорсуда, Роскомнадзора и рекламодателей: mosgorsud-torrent[собачка]yandex.ru
 Вход
ppkBB3cker v.2 © 2008-2014 @ PPK
[ Time : 0.047s | 15 Queries | GZIP : Off ]

cron