img image001 image001 image001 image001 image001 image001 image001 image001 image001 image001 image001 image001 image001 image001 image001

Planets Sun Sun Sun
Статистика раздачи
Автор: Снежана | Размер: 8.73 ГБ | Добавлен: 27 июл 2013
Раздают: 0    Качают: 2
Скачать торрент
Скачать торрент
Описание торрента

СообщениеДобавлено: 27 июл 2013 

#77
Год выпуска: 2000-2003
Страна: Канада, Китай

Киностудия: AAC Kids, Hong Ying Animation Inc...
Жанр: мультфильм, комедия
Продолжительность: ~ 00:22:40 / серия

Перевод: Профессиональный (дублированный)
Субтитры: нет

Режиссер: Грег Салливан / Greg Sullivan

Роли озвучивали:
Ли Токар, Дрю Рейчелт, Бабс Чула, Йен Джеймс Корлетт, Глен Гулд, Кирби Морроу, Джейн Мортифи

Описание:
Иван (Ивон по-французски) — это храбрый, но наивный моряк и искатель приключений, попавший к нам из 17 века. По велению своего короля Луи XIV он отправился открывать и покорять новые земли во славу Франции, но почти на три столетия оказался замороженным во льдах Юкона! От ледового сна очнулся Иван среди не особо умных, зато веселых и добродушных жителей северной Канады. И живётся Ивану у них не плохо.






Исходник: 3xDVD9 R5
Качество: DVDRip-AVC
Формат: AVI
Видео: 704x572@736x572 (4:3), 25 fps, H264 ~ 1928 kbps avg, 0.192 bit/pixel
Аудио: Русский AC3 2.0, 192 Kbps, 48 khz
Примечание: Раздача рассчитана под запись на 2 DVD5 - по тринадцать серий на диск.
Раздача от:
Сезон 1
01. Кроткий бросает вызов / Call of the Mild
02. На карте не значится / North of Nothing
03. Сертификат качества на запах / License to Smell
04. Любовь в стиле Бабс / When Love Goes Babs
05. Офицер и француз / An Officer & a Frenchman
06. И возлюбил он моржа / The Walrus Between Us
07. Пляжный денёчек / Beach Blanket Bozos
08. И болван сойдёт за короля / The Clod Who Would Be King
09. Сыр замедляного действия / Fromage to Eternity
10. Денёчек с мисс Валенти / Valentine’s Day
11. Иван Киллер / Mad Dog Ducharme
12. Везунья миллионера / Million Dollar Moron
13. Отвержение / An Affair to Dismember

Сезон 2
14. Оценка отлично за дружбу / An F in Friendship
15. Полный маразм / Dawn of the Dense
16. Как мерзавца поставить на место / Land of the Midnight Scum
17. Снежный фаитон /Chariots of Ice
18. Странная парочка / The Really Odd Couple
19. Игрик файлы / The Y Files
20. Иван в затерянном мире / Yvon Over the Rainbow
21. Как делили мамонта / The Trouble with Mammoths
22. Шайбу-шайбу / Pull Your Goalie
23. Иванов день / Joy to Yvon
24. Десять маленьких идиотов / Ten Little Idiots
25. Горе исследователей / The Unfit Outfitters
26. А суть в чём / The Teeth of the Matter

Общее
Полное имя : Otmorozhenniy.Ivan.iz.Yukona.2000.D.DVDRip-AVC_[Youtracker]_by_avproh\01.mkv
Формат : Matroska
Версия формата : Version 4 / Version 2
Размер файла : 344 Мбайт
Продолжительность : 22 м.
Общий поток : 2122 Кбит/сек
Дата кодирования : UTC 2013-05-12 06:19:11
Программа кодирования : mkvmerge v6.1.0 ('Old Devil') built on Mar 2 2013 14:32:37
Библиотека кодирования : libebml v1.3.0 + libmatroska v1.4.0

Видео
Идентификатор : 1
Формат : AVC
Формат/Информация : Advanced Video Codec
Профиль формата : High@L4.1
Параметр CABAC формата : Да
Параметр ReFrames формата : 11 кадров
Идентификатор кодека : V_MPEG4/ISO/AVC
Продолжительность : 22 м.
Битрейт : 1928 Кбит/сек
Ширина : 704 пикселя
Высота : 572 пикселя
Соотношение сторон : 4:3
Соотношение сторон в оригинале : 4:3
Режим частоты кадров : Постоянный
Частота кадров : 25,000 кадров/сек
Цветовое пространство : YUV
Субдискретизация насыщенности : 4:2:0
Битовая глубина : 8 бит
Тип развёртки : Прогрессивная
Бит/(Пиксели*Кадры) : 0.192
Размер потока : 306 Мбайт (89%)
Библиотека кодирования : x264 core 130 r2273 b3065e6
Настройки программы : cabac=1 / ref=11 / deblock=1:-2:-1 / analyse=0x3:0x113 / me=umh / subme=9 / psy=1 / psy_rd=1.00:0.20 / mixed_ref=1 / me_range=32 / chroma_me=1 / trellis=1 / 8x8dct=1 / cqm=0 / deadzone=21,11 / fast_pskip=0 / chroma_qp_offset=-3 / threads=9 / lookahead_threads=1 / sliced_threads=0 / nr=0 / decimate=0 / interlaced=0 / bluray_compat=0 / constrained_intra=0 / bframes=8 / b_pyramid=2 / b_adapt=2 / b_bias=0 / direct=3 / weightb=1 / open_gop=0 / weightp=2 / keyint=250 / keyint_min=25 / scenecut=40 / intra_refresh=0 / rc_lookahead=60 / rc=2pass / mbtree=1 / bitrate=1928 / ratetol=1.0 / qcomp=0.60 / qpmin=0 / qpmax=69 / qpstep=4 / cplxblur=20.0 / qblur=0.5 / ip_ratio=1.40 / aq=1:1.00
Язык : Russian
Default : Да
Forced : Нет

Аудио
Идентификатор : 2
Формат : AC-3
Формат/Информация : Audio Coding 3
Расширение режима : CM (complete main)
Параметр Endianness формата : Big
Идентификатор кодека : A_AC3
Продолжительность : 22 м.
Вид битрейта : Постоянный
Битрейт : 192 Кбит/сек
Каналы : 2 канала
Расположение каналов : Front: L R
Частота : 48,0 КГц
Битовая глубина : 16 бит
Метод сжатия : С потерями
Размер потока : 31,1 Мбайт (9%)
Язык : Russian
Default : Да
Forced : Нет





   Похожие торренты   Торрент   Размер 
В этой теме нет новых непрочитанных сообщений. Отмороженный: Иван из Юкона / Yvon of the Yukon [01-02x01-26 из 26] (2000-2003) DVDRip от Youtracker | D

1 | 2

8.71 ГБ

В этой теме нет новых непрочитанных сообщений. Отмороженный: Иван из Юкона / Yvon of the Yukon [01-02x01-26 из 26] (2000-2003) 3xDVD9 от Youtracker | D | Лицензия

0 | 2

22.99 ГБ

В этой теме нет новых непрочитанных сообщений. Солдат Иван Бровкин (1956) DVDRip-AVC от Youtracker

646 | 37

1.46 ГБ

В этой теме нет новых непрочитанных сообщений. Атомный Иван (2012) DVDRip от Youtracker | Лицензия

56 | 2

746.13 МБ

В этой теме нет новых непрочитанных сообщений. Царь Иван Грозный (1991) DVDRip от Youtracker

90 | 10

1.45 ГБ

В этой теме нет новых непрочитанных сообщений. Иван Бровкин на целине (1958) DVDRip от Youtracker

47 | 18

743.69 МБ

В этой теме нет новых непрочитанных сообщений. Солдат Иван Бровкин (1956) DVDRip от Youtracker

152 | 16

744.55 МБ




Вы не можете начинать темы
Вы не можете отвечать на сообщения
Вы не можете редактировать свои сообщения
Вы не можете удалять свои сообщения
Вы не можете добавлять вложения

Перейти:  
Для Мосгорсуда, Роскомнадзора и рекламодателей: mosgorsud-torrent[собачка]yandex.ru
 Вход
ppkBB3cker v.2 © 2008-2014 @ PPK
[ Time : 0.090s | 14 Queries | GZIP : Off ]

Торрент трекер RUTOR.IN, Не можете зайти на rutor.org? Какой новый адрес рутор? Какое зеркало рутор? Не работает rutor.org и зеркала? Тогда наш торрент специально для вас. Rutor.in неофициальное зеркало rutor. В случае если у Вас заблокирован rutor или вдруг Вы не можете на него зайти, то Вы без труда сможете скачать бесплатно и без рекламы последние новинки кино, игр, сериалов и прочего у нас, на Rutor.in. Не нужно использовать прокси, чтобы зайти на рутор, достаточно воспользоваться нашим ресурсом. Все новые фильмы, игры, сериалы, книги и музыка за 2013 и 2014 годы через торрент бесплатно. Скачивайте фильмы в хорошем качестве, игры для пк, xbox, playstation без регистрации. У нас вы найдете новые Зарубежные сериалы и Русские сериалы 2013, 2014, 2015 годов. Оставайтесь с нами, качайте любимые фильмы, игры, сериалы, книги и музыку.