img image001 image001 image001 image001 image001 image001 image001 image001 image001 image001 image001 image001 image001 image001 image001

Planets Sun Sun Sun
Статистика раздачи
Автор: Снежана | Размер: 6.89 ГБ | Добавлен: 27 июл 2013
Раздают: 5    Качают: 2
Скачать торрент
Скачать торрент
Описание торрента

СообщениеДобавлено: 27 июл 2013 

#77

Информация о фильме
Оригинальное название: Ку! Кин-дза-дза
Год выпуска: 2013
Жанр: Мультфильм, фантастика, комедия
Выпущено: Россия, Первый канал, Кинокомпания CTB, Ритм, Югра-фильм
Режиссер: Георгий Данелия, Татьяна Ильина
В ролях: Николай Губенко, Иван Цехмистренко, Андрей Леонов, Алексей Колган, Александр Адабашьян, Георгий Данелия, Игорь Кваша, Вахтанг Кикабидзе, Галина Данелия-Юркова, Полина Кутепова, Евгений Стеблов, Алла Санникова, Игорь Санников, Маргарита Рассказова, Виктория Радунская, Ирина Девляшова

О фильме: Начинающий диджей Толик и всемирно известный виолончелист Владимир Чижов встречают на шумной московской улице босого человека. Нажав на кнопку странной машинки, герои перемещаются на пустынную планету Плюк. Анимационный ремейк любимого всеми фильма «Кин-дза-дза!» не менее увлекательно и смешно, чем оригинал, рассказывает о приключениях Толика и дяди Вовы. В этом мире песка жители делятся на две категории — пацаков и плюкан, простая спичка обладает невероятной ценностью, а людей встречают и провожают по цвету штанов.



Файл
Качество: ВDRip 1080р
Видео: MPEG-4 AVC, 8711 Кбит/с, 1920x1080
Аудио: DTS, 6 ch, 1510 Кбит/с
Продолжительность: 01:31:41
Язык: Русский

Семпл

Общее
Уникальный идентификатор : 192161002265173866051998433559794607323 (0x9090DCE31F0E41D0B6AE07EE468EE4DB)
Полное имя : D:Ку! Кин-дза-дза.2013.BDRip.1080pa.mkv
Формат : Matroska
Версия формата : Version 2
Размер файла : 6,89 Гбайт
Продолжительность : 1 ч. 36 м.
Общий поток : 10,2 Мбит/сек
Дата кодирования : UTC 2013-05-13 19:07:23
Программа кодирования : mkvmerge v6.1.0 ('Old Devil') built on Mar 4 2013 09:10:42
Библиотека кодирования : libebml v1.3.0 + libmatroska v1.4.0

Видео
Идентификатор : 1
Формат : AVC
Формат/Информация : Advanced Video Codec
Профиль формата : High@L4.0
Параметр CABAC формата : Да
Параметр ReFrames формата : 4 кадра
Идентификатор кодека : V_MPEG4/ISO/AVC
Продолжительность : 1 ч. 36 м.
Битрейт : 8711 Кбит/сек
Ширина : 1920 пикселей
Высота : 1080 пикселей
Соотношение сторон : 16:9
Частота кадров : 23,976 кадра/сек
Цветовое пространство : YUV
Субдискретизация насыщенности : 4:2:0
Битовая глубина : 8 бит
Тип развёртки : Прогрессивная
Бит/(Пиксели*Кадры) : 0.175
Размер потока : 5,73 Гбайт (83%)
Библиотека кодирования : x264 core 130 r2273 b3065e6
Настройки программы : cabac=1 / ref=3 / deblock=1:0:0 / analyse=0x3:0x113 / me=hex / subme=7 / psy=1 / psy_rd=1.00:0.00 / mixed_ref=1 / me_range=16 / chroma_me=1 / trellis=1 / 8x8dct=1 / cqm=0 / deadzone=21,11 / fast_pskip=1 / chroma_qp_offset=-2 / threads=6 / lookahead_threads=1 / sliced_threads=0 / nr=0 / decimate=1 / interlaced=0 / bluray_compat=0 / constrained_intra=0 / bframes=3 / b_pyramid=2 / b_adapt=1 / b_bias=0 / direct=1 / weightb=1 / open_gop=0 / weightp=2 / keyint=250 / keyint_min=23 / scenecut=40 / intra_refresh=0 / rc_lookahead=40 / rc=2pass / mbtree=1 / bitrate=8711 / ratetol=1.0 / qcomp=0.60 / qpmin=0 / qpmax=69 / qpstep=4 / cplxblur=20.0 / qblur=0.5 / ip_ratio=1.40 / aq=1:1.00

Аудио
Идентификатор : 2
Формат : DTS
Формат/Информация : Digital Theater Systems
Идентификатор кодека : A_DTS
Продолжительность : 1 ч. 36 м.
Вид битрейта : Постоянный
Битрейт : 1510 Кбит/сек
Каналы : 6 каналов
Расположение каналов : Front: L C R, Side: L R, LFE
Частота : 48,0 КГц
Битовая глубина : 16 бит
Метод сжатия : С потерями
Размер потока : 1,02 Гбайт (15%)





   Похожие торренты   Торрент   Размер 
В этой теме нет новых непрочитанных сообщений. Ида / Ida (2013) ВDRip 1080р | L2, L1

170 | 14

6.78 ГБ

В этой теме нет новых непрочитанных сообщений. Стрелок / Skytten (2013) ВDRip 1080р | L1

14 | 9

7.61 ГБ

В этой теме нет новых непрочитанных сообщений. Ограм на счастье / Au bonheur des ogres (2013) ВDRip 1080р | P

92 | 15

6.68 ГБ

В этой теме нет новых непрочитанных сообщений. 22 мая / 22 mei (2010) ВDRip 1080р | L1

26 | 3

7.14 ГБ

В этой теме нет новых непрочитанных сообщений. Добро пожаловать ко мне / Welcome to Me (2014) ВDRip 1080р | A

44 | 11

8.82 ГБ

В этой теме нет новых непрочитанных сообщений. Наркобарон / Narc (2002) ВDRip 1080р | P

39 | 77

8.75 ГБ

В этой теме нет новых непрочитанных сообщений. Берни / Bernie (2011) ВDRip 1080р | P

47 | 12

6.03 ГБ




Вы не можете начинать темы
Вы не можете отвечать на сообщения
Вы не можете редактировать свои сообщения
Вы не можете удалять свои сообщения
Вы не можете добавлять вложения

Перейти:  
Для Мосгорсуда, Роскомнадзора и рекламодателей: mosgorsud-torrent[собачка]yandex.ru
 Вход
ppkBB3cker v.2 © 2008-2014 @ PPK
[ Time : 0.523s | 14 Queries | GZIP : Off ]

Торрент трекер RUTOR.IN, Не можете зайти на rutor.org? Какой новый адрес рутор? Какое зеркало рутор? Не работает rutor.org и зеркала? Тогда наш торрент специально для вас. Rutor.in неофициальное зеркало rutor. В случае если у Вас заблокирован rutor или вдруг Вы не можете на него зайти, то Вы без труда сможете скачать бесплатно и без рекламы последние новинки кино, игр, сериалов и прочего у нас, на Rutor.in. Не нужно использовать прокси, чтобы зайти на рутор, достаточно воспользоваться нашим ресурсом. Все новые фильмы, игры, сериалы, книги и музыка за 2013 и 2014 годы через торрент бесплатно. Скачивайте фильмы в хорошем качестве, игры для пк, xbox, playstation без регистрации. У нас вы найдете новые Зарубежные сериалы и Русские сериалы 2013, 2014, 2015 годов. Оставайтесь с нами, качайте любимые фильмы, игры, сериалы, книги и музыку.